  0
SECTION
  2
HEADER
  9
$ACADVER
  1
AC1015
  9
$ACADMAINTVER
 70
     6
  9
$DWGCODEPAGE
  3
ANSI_1252
  9
$INSBASE
 10
0.0
 20
0.0
 30
0.0
  9
$EXTMIN
 10
-210.0000000000001
 20
0.0
 30
0.0
  9
$EXTMAX
 10
0.0
 20
297.0000000000001
 30
0.0
  9
$LIMMIN
 10
0.0
 20
0.0
  9
$LIMMAX
 10
12.0
 20
9.0
  9
$ORTHOMODE
 70
     0
  9
$REGENMODE
 70
     1
  9
$FILLMODE
 70
     1
  9
$QTEXTMODE
 70
     0
  9
$MIRRTEXT
 70
     1
  9
$LTSCALE
 40
1.0
  9
$ATTMODE
 70
     1
  9
$TEXTSIZE
 40
0.2
  9
$TRACEWID
 40
0.05
  9
$TEXTSTYLE
  7
Standard
  9
$CLAYER
  8
0
  9
$CELTYPE
  6
ByLayer
  9
$CECOLOR
 62
   256
  9
$CELTSCALE
 40
1.0
  9
$DISPSILH
 70
     0
  9
$DIMSCALE
 40
1.0
  9
$DIMASZ
 40
0.18
  9
$DIMEXO
 40
0.0625
  9
$DIMDLI
 40
0.38
  9
$DIMRND
 40
0.0
  9
$DIMDLE
 40
0.0
  9
$DIMEXE
 40
0.18
  9
$DIMTP
 40
0.0
  9
$DIMTM
 40
0.0
  9
$DIMTXT
 40
0.18
  9
$DIMCEN
 40
0.09
  9
$DIMTSZ
 40
0.0
  9
$DIMTOL
 70
     0
  9
$DIMLIM
 70
     0
  9
$DIMTIH
 70
     1
  9
$DIMTOH
 70
     1
  9
$DIMSE1
 70
     0
  9
$DIMSE2
 70
     0
  9
$DIMTAD
 70
     0
  9
$DIMZIN
 70
     0
  9
$DIMBLK
  1

  9
$DIMASO
 70
     1
  9
$DIMSHO
 70
     1
  9
$DIMPOST
  1

  9
$DIMAPOST
  1

  9
$DIMALT
 70
     0
  9
$DIMALTD
 70
     2
  9
$DIMALTF
 40
25.4
  9
$DIMLFAC
 40
1.0
  9
$DIMTOFL
 70
     0
  9
$DIMTVP
 40
0.0
  9
$DIMTIX
 70
     0
  9
$DIMSOXD
 70
     0
  9
$DIMSAH
 70
     0
  9
$DIMBLK1
  1

  9
$DIMBLK2
  1

  9
$DIMSTYLE
  2
Standard
  9
$DIMCLRD
 70
     0
  9
$DIMCLRE
 70
     0
  9
$DIMCLRT
 70
     0
  9
$DIMTFAC
 40
1.0
  9
$DIMGAP
 40
0.09
  9
$DIMJUST
 70
     0
  9
$DIMSD1
 70
     0
  9
$DIMSD2
 70
     0
  9
$DIMTOLJ
 70
     1
  9
$DIMTZIN
 70
     0
  9
$DIMALTZ
 70
     0
  9
$DIMALTTZ
 70
     0
  9
$DIMUPT
 70
     0
  9
$DIMDEC
 70
     4
  9
$DIMTDEC
 70
     4
  9
$DIMALTU
 70
     2
  9
$DIMALTTD
 70
     2
  9
$DIMTXSTY
  7
Standard
  9
$DIMAUNIT
 70
     0
  9
$DIMADEC
 70
     0
  9
$DIMALTRND
 40
0.0
  9
$DIMAZIN
 70
     0
  9
$DIMDSEP
 70
    46
  9
$DIMATFIT
 70
     3
  9
$DIMFRAC
 70
     0
  9
$DIMLDRBLK
  1

  9
$DIMLUNIT
 70
     2
  9
$DIMLWD
 70
    -2
  9
$DIMLWE
 70
    -2
  9
$DIMTMOVE
 70
     0
  9
$LUNITS
 70
     2
  9
$LUPREC
 70
     4
  9
$SKETCHINC
 40
0.1
  9
$FILLETRAD
 40
0.5
  9
$AUNITS
 70
     0
  9
$AUPREC
 70
     0
  9
$MENU
  1
.
  9
$ELEVATION
 40
0.0
  9
$PELEVATION
 40
0.0
  9
$THICKNESS
 40
0.0
  9
$LIMCHECK
 70
     0
  9
$CHAMFERA
 40
0.5
  9
$CHAMFERB
 40
0.5
  9
$CHAMFERC
 40
1.0
  9
$CHAMFERD
 40
0.0
  9
$SKPOLY
 70
     0
  9
$TDCREATE
 40
2456997.59692882
  9
$TDUCREATE
 40
2456997.555262153
  9
$TDUPDATE
 40
2456997.596929178
  9
$TDUUPDATE
 40
2456997.555262512
  9
$TDINDWG
 40
0.0000000116
  9
$TDUSRTIMER
 40
0.0000000116
  9
$USRTIMER
 70
     1
  9
$ANGBASE
 50
0.0
  9
$ANGDIR
 70
     0
  9
$PDMODE
 70
     0
  9
$PDSIZE
 40
0.0
  9
$PLINEWID
 40
0.0
  9
$SPLFRAME
 70
     0
  9
$SPLINETYPE
 70
     6
  9
$SPLINESEGS
 70
     8
  9
$HANDSEED
  5
341
  9
$SURFTAB1
 70
     6
  9
$SURFTAB2
 70
     6
  9
$SURFTYPE
 70
     6
  9
$SURFU
 70
     6
  9
$SURFV
 70
     6
  9
$UCSBASE
  2

  9
$UCSNAME
  2

  9
$UCSORG
 10
0.0
 20
0.0
 30
0.0
  9
$UCSXDIR
 10
1.0
 20
0.0
 30
0.0
  9
$UCSYDIR
 10
0.0
 20
1.0
 30
0.0
  9
$UCSORTHOREF
  2

  9
$UCSORTHOVIEW
 70
     0
  9
$UCSORGTOP
 10
0.0
 20
0.0
 30
0.0
  9
$UCSORGBOTTOM
 10
0.0
 20
0.0
 30
0.0
  9
$UCSORGLEFT
 10
0.0
 20
0.0
 30
0.0
  9
$UCSORGRIGHT
 10
0.0
 20
0.0
 30
0.0
  9
$UCSORGFRONT
 10
0.0
 20
0.0
 30
0.0
  9
$UCSORGBACK
 10
0.0
 20
0.0
 30
0.0
  9
$PUCSBASE
  2

  9
$PUCSNAME
  2

  9
$PUCSORG
 10
0.0
 20
0.0
 30
0.0
  9
$PUCSXDIR
 10
1.0
 20
0.0
 30
0.0
  9
$PUCSYDIR
 10
0.0
 20
1.0
 30
0.0
  9
$PUCSORTHOREF
  2

  9
$PUCSORTHOVIEW
 70
     0
  9
$PUCSORGTOP
 10
0.0
 20
0.0
 30
0.0
  9
$PUCSORGBOTTOM
 10
0.0
 20
0.0
 30
0.0
  9
$PUCSORGLEFT
 10
0.0
 20
0.0
 30
0.0
  9
$PUCSORGRIGHT
 10
0.0
 20
0.0
 30
0.0
  9
$PUCSORGFRONT
 10
0.0
 20
0.0
 30
0.0
  9
$PUCSORGBACK
 10
0.0
 20
0.0
 30
0.0
  9
$USERI1
 70
     0
  9
$USERI2
 70
     0
  9
$USERI3
 70
     0
  9
$USERI4
 70
     0
  9
$USERI5
 70
     0
  9
$USERR1
 40
18.1
  9
$USERR2
 40
0.0
  9
$USERR3
 40
0.0
  9
$USERR4
 40
0.0
  9
$USERR5
 40
0.0
  9
$WORLDVIEW
 70
     1
  9
$SHADEDGE
 70
     3
  9
$SHADEDIF
 70
    70
  9
$TILEMODE
 70
     1
  9
$MAXACTVP
 70
    64
  9
$PINSBASE
 10
0.0
 20
0.0
 30
0.0
  9
$PLIMCHECK
 70
     0
  9
$PEXTMIN
 10
1.00000000000000E+20
 20
1.00000000000000E+20
 30
1.00000000000000E+20
  9
$PEXTMAX
 10
-1.00000000000000E+20
 20
-1.00000000000000E+20
 30
-1.00000000000000E+20
  9
$PLIMMIN
 10
0.0
 20
0.0
  9
$PLIMMAX
 10
12.0
 20
9.0
  9
$UNITMODE
 70
     0
  9
$VISRETAIN
 70
     1
  9
$PLINEGEN
 70
     0
  9
$PSLTSCALE
 70
     1
  9
$TREEDEPTH
 70
  3020
  9
$CMLSTYLE
  2
Standard
  9
$CMLJUST
 70
     0
  9
$CMLSCALE
 40
1.0
  9
$PROXYGRAPHICS
 70
     1
  9
$MEASUREMENT
 70
     1
  9
$CELWEIGHT
370
    -1
  9
$ENDCAPS
280
     0
  9
$JOINSTYLE
280
     0
  9
$LWDISPLAY
290
     0
  9
$INSUNITS
 70
     4
  9
$HYPERLINKBASE
  1

  9
$STYLESHEET
  1

  9
$XEDIT
290
     1
  9
$CEPSNTYPE
380
     0
  9
$PSTYLEMODE
290
     1
  9
$FINGERPRINTGUID
  2
{B482A117-D8F7-4FE1-B902-E59C43C87606}
  9
$VERSIONGUID
  2
{FAEB1C32-E019-11D5-929B-00C0DF256EC4}
  9
$EXTNAMES
290
     1
  9
$PSVPSCALE
 40
0.0
  9
$OLESTARTUP
290
     0
  0
ENDSEC
  0
SECTION
  2
CLASSES
  0
CLASS
  1
ACDBDICTIONARYWDFLT
  2
AcDbDictionaryWithDefault
  3
ObjectDBX Classes
 90
        0
280
     0
281
     0
  0
CLASS
  1
VISUALSTYLE
  2
AcDbVisualStyle
  3
ObjectDBX Classes
 90
     4095
280
     0
281
     0
  0
CLASS
  1
MATERIAL
  2
AcDbMaterial
  3
ObjectDBX Classes
 90
     1153
280
     0
281
     0
  0
CLASS
  1
DICTIONARYVAR
  2
AcDbDictionaryVar
  3
ObjectDBX Classes
 90
        0
280
     0
281
     0
  0
CLASS
  1
ACDBPLACEHOLDER
  2
AcDbPlaceHolder
  3
ObjectDBX Classes
 90
        0
280
     0
281
     0
  0
CLASS
  1
LAYOUT
  2
AcDbLayout
  3
ObjectDBX Classes
 90
        0
280
     0
281
     0
  0
ENDSEC
  0
SECTION
  2
TABLES
  0
TABLE
  2
VPORT
  5
8
330
0
100
AcDbSymbolTable
 70
     1
  0
VPORT
  5
29
330
8
100
AcDbSymbolTableRecord
100
AcDbViewportTableRecord
  2
*Active
 70
     0
 10
0.0
 20
0.0
 11
1.0
 21
1.0
 12
-105.0000000000001
 22
148.5000000000001
 13
0.0
 23
0.0
 14
0.5
 24
0.5
 15
0.5
 25
0.5
 16
0.0
 26
0.0
 36
1.0
 17
0.0
 27
0.0
 37
0.0
 40
326.7000000000002
 41
1.60267857142857
 42
50.0
 43
0.0
 44
0.0
 50
0.0
 51
0.0
 71
     0
 72
   100
 73
     1
 74
     3
 75
     0
 76
     0
 77
     0
 78
     0
281
     0
 65
     1
110
0.0
120
0.0
130
0.0
111
1.0
121
0.0
131
0.0
112
0.0
122
1.0
132
0.0
 79
     0
146
0.0
  0
ENDTAB
  0
TABLE
  2
LTYPE
  5
5
330
0
100
AcDbSymbolTable
 70
     8
  0
LTYPE
  5
14
330
5
100
AcDbSymbolTableRecord
100
AcDbLinetypeTableRecord
  2
ByBlock
 70
     0
  3

 72
    65
 73
     0
 40
0.0
  0
LTYPE
  5
15
330
5
100
AcDbSymbolTableRecord
100
AcDbLinetypeTableRecord
  2
ByLayer
 70
     0
  3

 72
    65
 73
     0
 40
0.0
  0
LTYPE
  5
16
330
5
100
AcDbSymbolTableRecord
100
AcDbLinetypeTableRecord
  2
Continuous
 70
     0
  3
Solid line
 72
    65
 73
     0
 40
0.0
  0
LTYPE
  5
3F
330
5
100
AcDbSymbolTableRecord
100
AcDbLinetypeTableRecord
  2
DASHED
 70
     0
  3
Dashed
 72
    65
 73
     2
 40
15.0
 49
7.0
 74
     0
 49
-8.0
 74
     0
  0
LTYPE
  5
40
330
5
100
AcDbSymbolTableRecord
100
AcDbLinetypeTableRecord
  2
DOTTED
 70
     0
  3
Dotted
 72
    65
 73
     2
 40
1.0
 49
0.0
 74
     0
 49
-1.0
 74
     0
  0
LTYPE
  5
41
330
5
100
AcDbSymbolTableRecord
100
AcDbLinetypeTableRecord
  2
DOT_CENTER
 70
     0
  3
Dot_Center
 72
    65
 73
     4
 40
14.0
 49
12.0
 74
     0
 49
-1.0
 74
     0
 49
0.0
 74
     0
 49
-1.0
 74
     0
  0
LTYPE
  5
42
330
5
100
AcDbSymbolTableRecord
100
AcDbLinetypeTableRecord
  2
LONG_DASHED
 70
     0
  3
Long_Dashed
 72
    65
 73
     2
 40
15.0
 49
10.0
 74
     0
 49
-5.0
 74
     0
  0
LTYPE
  5
43
330
5
100
AcDbSymbolTableRecord
100
AcDbLinetypeTableRecord
  2
DASH_CENTER
 70
     0
  3
Dash_Center
 72
    65
 73
     4
 40
14.0
 49
11.0
 74
     0
 49
-1.0
 74
     0
 49
1.0
 74
     0
 49
-1.0
 74
     0
  0
LTYPE
  5
44
330
5
100
AcDbSymbolTableRecord
100
AcDbLinetypeTableRecord
  2
PHANTOM
 70
     0
  3
Phantom
 72
    65
 73
     6
 40
13.0
 49
10.0
 74
     0
 49
-1.0
 74
     0
 49
0.0
 74
     0
 49
-1.0
 74
     0
 49
0.0
 74
     0
 49
-1.0
 74
     0
  0
LTYPE
  5
45
330
5
100
AcDbSymbolTableRecord
100
AcDbLinetypeTableRecord
  2
CENTER_DASH_DASH
 70
     0
  3
Center_Dash_Dash
 72
    65
 73
     6
 40
14.0
 49
9.0
 74
     0
 49
-1.0
 74
     0
 49
1.0
 74
     0
 49
-1.0
 74
     0
 49
1.0
 74
     0
 49
-1.0
 74
     0
  0
ENDTAB
  0
TABLE
  2
LAYER
  5
2
330
0
100
AcDbSymbolTable
 70
     3
  0
LAYER
  5
10
330
2
100
AcDbSymbolTableRecord
100
AcDbLayerTableRecord
  2
0
 70
     0
 62
     7
  6
Continuous
370
    -3
390
F
  0
LAYER
  5
46
330
2
100
AcDbSymbolTableRecord
100
AcDbLayerTableRecord
  2
1
 70
     0
 62
     7
  6
Continuous
370
    -3
390
F
  0
LAYER
  5
47
330
2
100
AcDbSymbolTableRecord
100
AcDbLayerTableRecord
  2
Symbole_TC_020513_DIN_
 70
     0
 62
     7
  6
Continuous
370
    -3
390
F
  0
ENDTAB
  0
TABLE
  2
STYLE
  5
3
330
0
100
AcDbSymbolTable
 70
     5
  0
STYLE
  5
11
330
3
100
AcDbSymbolTableRecord
100
AcDbTextStyleTableRecord
  2
Standard
 70
     0
 40
0.0
 41
1.0
 50
0.0
 71
     0
 42
0.2
  3
txt
  4

  0
STYLE
  5
9C
330
3
100
AcDbSymbolTableRecord
100
AcDbTextStyleTableRecord
  2
CONVERTER_11
 70
     0
 40
0.0
 41
1.38
 50
0.0
 71
     0
 42
0.2
  3
ARIAL.TTF
  4

  0
STYLE
  5
9E
330
3
100
AcDbSymbolTableRecord
100
AcDbTextStyleTableRecord
  2
CONVERTER_12
 70
     0
 40
0.0
 41
1.2
 50
0.0
 71
     0
 42
0.2
  3
ARIAL.TTF
  4

  0
STYLE
  5
28F
330
3
100
AcDbSymbolTableRecord
100
AcDbTextStyleTableRecord
  2
CONVERTER_13
 70
     0
 40
0.0
 41
1.6
 50
0.0
 71
     0
 42
0.2
  3
ARIAL.TTF
  4

  0
STYLE
  5
29B
330
3
100
AcDbSymbolTableRecord
100
AcDbTextStyleTableRecord
  2
CONVERTER_14
 70
     0
 40
0.0
 41
0.95
 50
0.0
 71
     0
 42
0.2
  3
simplex.shx
  4

  0
ENDTAB
  0
TABLE
  2
VIEW
  5
6
330
0
100
AcDbSymbolTable
 70
     0
  0
ENDTAB
  0
TABLE
  2
UCS
  5
7
330
0
100
AcDbSymbolTable
 70
     0
  0
ENDTAB
  0
TABLE
  2
APPID
  5
9
330
0
100
AcDbSymbolTable
 70
     1
  0
APPID
  5
12
330
9
100
AcDbSymbolTableRecord
100
AcDbRegAppTableRecord
  2
ACAD
 70
     0
  0
ENDTAB
  0
TABLE
  2
DIMSTYLE
  5
A
330
0
100
AcDbSymbolTable
 70
    10
100
AcDbDimStyleTable
  0
DIMSTYLE
105
27
330
A
100
AcDbSymbolTableRecord
100
AcDbDimStyleTableRecord
  2
Standard
 70
     0
178
     0
340
11
  0
DIMSTYLE
105
29F
102
{ACAD_REACTORS
330
2A0
102
}
330
A
100
AcDbSymbolTableRecord
100
AcDbDimStyleTableRecord
  2
ME10_DIM_10
 70
     0
 41
3.0
 42
0.5
 44
1.0
 77
     1
 78
     8
140
3.0
147
2.0
172
     1
173
     1
174
     1
175
     1
176
     2
177
     2
271
     2
178
     4
271
     2
340
29B
  0
DIMSTYLE
105
2AC
102
{ACAD_REACTORS
330
2AD
102
}
330
A
100
AcDbSymbolTableRecord
100
AcDbDimStyleTableRecord
  2
ME10_DIM_11
 70
     0
 41
3.0
 42
0.5
 44
1.0
 77
     1
 78
     8
140
3.0
147
2.0
172
     1
173
     1
174
     1
175
     1
176
     2
177
     2
271
     2
178
     4
271
     2
340
29B
  0
DIMSTYLE
105
2B7
102
{ACAD_REACTORS
330
2B8
102
}
330
A
100
AcDbSymbolTableRecord
100
AcDbDimStyleTableRecord
  2
ME10_DIM_12
 70
     0
 41
3.0
 42
0.5
 44
1.0
 77
     1
 78
     8
140
3.0
147
2.0
172
     1
173
     1
174
     1
175
     1
176
     2
177
     2
271
     2
178
     4
271
     2
340
29B
  0
DIMSTYLE
105
2C3
102
{ACAD_REACTORS
330
2C4
102
}
330
A
100
AcDbSymbolTableRecord
100
AcDbDimStyleTableRecord
  2
ME10_DIM_13
 70
     0
 41
3.0
 42
0.5
 44
1.0
 77
     1
 78
     8
140
3.0
147
2.0
172
     1
173
     1
174
     1
175
     1
176
     2
177
     2
271
     2
178
     4
271
     2
340
29B
  0
DIMSTYLE
105
2CE
102
{ACAD_REACTORS
330
2CF
102
}
330
A
100
AcDbSymbolTableRecord
100
AcDbDimStyleTableRecord
  2
ME10_DIM_14
 70
     0
 41
3.0
 42
0.5
 44
1.0
 77
     1
 78
     8
140
3.0
147
2.0
172
     1
173
     1
174
     1
175
     1
176
     2
177
     2
271
     2
178
     4
271
     2
340
29B
  0
DIMSTYLE
105
2D9
102
{ACAD_REACTORS
330
2DA
102
}
330
A
100
AcDbSymbolTableRecord
100
AcDbDimStyleTableRecord
  2
ME10_DIM_15
 70
     0
 41
3.0
 42
0.5
 44
1.0
 77
     1
 78
     8
140
3.0
147
2.0
172
     1
173
     1
174
     1
175
     1
176
     2
177
     2
271
     2
178
     4
271
     2
340
29B
  0
DIMSTYLE
105
2E5
102
{ACAD_REACTORS
330
2E6
102
}
330
A
100
AcDbSymbolTableRecord
100
AcDbDimStyleTableRecord
  2
ME10_DIM_16
 70
     0
 41
3.0
 42
0.5
 44
1.0
 77
     1
 78
     8
140
3.0
147
2.0
172
     1
173
     1
174
     1
175
     1
176
     2
177
     2
271
     2
178
     4
271
     2
340
29B
  0
DIMSTYLE
105
2F1
102
{ACAD_REACTORS
330
2F2
102
}
330
A
100
AcDbSymbolTableRecord
100
AcDbDimStyleTableRecord
  2
ME10_DIM_17
 70
     0
 41
3.0
 42
0.5
 44
1.0
 77
     1
 78
     8
140
3.0
147
2.0
172
     1
173
     1
174
     1
175
     1
176
     2
177
     2
271
     2
178
     4
271
     2
340
29B
  0
DIMSTYLE
105
2FD
102
{ACAD_REACTORS
330
2FE
102
}
330
A
100
AcDbSymbolTableRecord
100
AcDbDimStyleTableRecord
  2
ME10_DIM_18
 70
     0
 41
3.0
 42
0.5
 44
1.0
 77
     1
 78
     8
140
3.0
147
2.0
172
     1
173
     1
174
     1
175
     1
176
     2
177
     2
271
     2
178
     4
271
     2
340
29B
  0
ENDTAB
  0
TABLE
  2
BLOCK_RECORD
  5
1
330
0
100
AcDbSymbolTable
 70
    14
  0
BLOCK_RECORD
  5
1F
330
1
100
AcDbSymbolTableRecord
100
AcDbBlockTableRecord
  2
*Model_Space
340
22
  0
BLOCK_RECORD
  5
1B
330
1
100
AcDbSymbolTableRecord
100
AcDbBlockTableRecord
  2
*Paper_Space
340
1E
  0
BLOCK_RECORD
  5
23
330
1
100
AcDbSymbolTableRecord
100
AcDbBlockTableRecord
  2
*Paper_Space0
340
26
  0
BLOCK_RECORD
  5
48
330
1
100
AcDbSymbolTableRecord
100
AcDbBlockTableRecord
  2
_formato_A4
340
0
102
{BLKREFS
331
4C
102
}
  0
BLOCK_RECORD
  5
4B
330
1
100
AcDbSymbolTableRecord
100
AcDbBlockTableRecord
  2
A4
340
0
102
{BLKREFS
331
4F
102
}
  0
BLOCK_RECORD
  5
295
330
1
100
AcDbSymbolTableRecord
100
AcDbBlockTableRecord
  2
*D3
340
0
  0
BLOCK_RECORD
  5
2A1
330
1
100
AcDbSymbolTableRecord
100
AcDbBlockTableRecord
  2
*D4
340
0
  0
BLOCK_RECORD
  5
2AE
330
1
100
AcDbSymbolTableRecord
100
AcDbBlockTableRecord
  2
*D5
340
0
  0
BLOCK_RECORD
  5
2B9
330
1
100
AcDbSymbolTableRecord
100
AcDbBlockTableRecord
  2
*D6
340
0
  0
BLOCK_RECORD
  5
2C5
330
1
100
AcDbSymbolTableRecord
100
AcDbBlockTableRecord
  2
*D7
340
0
  0
BLOCK_RECORD
  5
2D0
330
1
100
AcDbSymbolTableRecord
100
AcDbBlockTableRecord
  2
*D8
340
0
  0
BLOCK_RECORD
  5
2DB
330
1
100
AcDbSymbolTableRecord
100
AcDbBlockTableRecord
  2
*D9
340
0
  0
BLOCK_RECORD
  5
2E7
330
1
100
AcDbSymbolTableRecord
100
AcDbBlockTableRecord
  2
*D10
340
0
  0
BLOCK_RECORD
  5
2F3
330
1
100
AcDbSymbolTableRecord
100
AcDbBlockTableRecord
  2
*D11
340
0
  0
BLOCK_RECORD
  5
2FF
330
1
100
AcDbSymbolTableRecord
100
AcDbBlockTableRecord
  2
*D12
340
0
102
{BLKREFS
331
307
102
}
  0
BLOCK_RECORD
  5
308
330
1
100
AcDbSymbolTableRecord
100
AcDbBlockTableRecord
  2
*D13
340
0
102
{BLKREFS
331
310
102
}
  0
ENDTAB
  0
ENDSEC
  0
SECTION
  2
BLOCKS
  0
BLOCK
  5
20
330
1F
100
AcDbEntity
  8
0
100
AcDbBlockBegin
  2
*Model_Space
 70
     0
 10
0.0
 20
0.0
 30
0.0
  3
*Model_Space
  1

  0
ENDBLK
  5
21
330
1F
100
AcDbEntity
  8
0
100
AcDbBlockEnd
  0
BLOCK
  5
1C
330
1B
100
AcDbEntity
 67
     1
  8
0
100
AcDbBlockBegin
  2
*Paper_Space
 70
     0
 10
0.0
 20
0.0
 30
0.0
  3
*Paper_Space
  1

  0
ENDBLK
  5
1D
330
1B
100
AcDbEntity
 67
     1
  8
0
100
AcDbBlockEnd
  0
BLOCK
  5
24
330
23
100
AcDbEntity
  8
0
100
AcDbBlockBegin
  2
*Paper_Space0
 70
     0
 10
0.0
 20
0.0
 30
0.0
  3
*Paper_Space0
  1

  0
ENDBLK
  5
25
330
23
100
AcDbEntity
  8
0
100
AcDbBlockEnd
  0
BLOCK
  5
49
330
48
100
AcDbEntity
  8
0
100
AcDbBlockBegin
  2
_formato_A4
 70
     0
 10
0.0
 20
0.0
 30
0.0
  3
_formato_A4
  1

  0
LINE
  5
50
330
48
100
AcDbEntity
  8
1
  6
Continuous
 62
     7
100
AcDbLine
 10
-189.0
 20
14.99999999999989
 30
0.0
 11
-159.0
 21
14.99999999999989
 31
0.0
  0
LINE
  5
51
330
48
100
AcDbEntity
  8
1
  6
Continuous
 62
     7
100
AcDbLine
 10
-189.0
 20
20.0
 30
0.0
 11
-189.0
 21
4.99999999999989
 31
0.0
  0
LINE
  5
52
330
48
100
AcDbEntity
  8
1
  6
Continuous
 62
     7
100
AcDbLine
 10
-49.0
 20
20.0
 30
0.0
 11
-49.0
 21
5.0
 31
0.0
  0
LINE
  5
53
330
48
100
AcDbEntity
  8
1
  6
Continuous
 62
     7
100
AcDbLine
 10
-31.64739862251457
 20
20.0
 30
0.0
 11
-31.64739862251457
 21
5.0
 31
0.0
  0
LINE
  5
54
330
48
100
AcDbEntity
  8
1
  6
Continuous
 62
     7
100
AcDbLine
 10
-159.0
 20
20.0
 30
0.0
 11
-159.0
 21
5.0
 31
0.0
  0
LINE
  5
55
330
48
100
AcDbEntity
  8
1
  6
Continuous
 62
     7
100
AcDbLine
 10
-189.0
 20
9.99999999999989
 30
0.0
 11
-159.0
 21
9.99999999999989
 31
0.0
  0
LINE
  5
56
330
48
100
AcDbEntity
  8
1
  6
Continuous
 62
     7
100
AcDbLine
 10
-210.0000000000001
 20
148.4999999999997
 30
0.0
 11
-195.0000000000001
 21
148.4999999999997
 31
0.0
  0
LINE
  5
57
330
48
100
AcDbEntity
  8
1
  6
Continuous
 62
     7
100
AcDbLine
 10
0.0
 20
0.0
 30
0.0
 11
0.0
 21
297.0000000000001
 31
0.0
  0
LINE
  5
58
330
48
100
AcDbEntity
  8
1
  6
Continuous
 62
     7
100
AcDbLine
 10
-210.0000000000001
 20
0.0
 30
0.0
 11
0.0
 21
0.0
 31
0.0
  0
LINE
  5
59
330
48
100
AcDbEntity
  8
1
  6
Continuous
 62
     7
100
AcDbLine
 10
-210.0000000000001
 20
297.0000000000001
 30
0.0
 11
-210.0000000000001
 21
0.0
 31
0.0
  0
LINE
  5
5A
330
48
100
AcDbEntity
  8
1
  6
Continuous
 62
     7
100
AcDbLine
 10
0.0
 20
297.0000000000001
 30
0.0
 11
-210.0000000000001
 21
297.0000000000001
 31
0.0
  0
LINE
  5
5B
330
48
100
AcDbEntity
  8
1
  6
Continuous
 62
     7
100
AcDbLine
 10
-5.0
 20
4.99999999999989
 30
0.0
 11
-5.0
 21
292.0000000000001
 31
0.0
  0
LINE
  5
5C
330
48
100
AcDbEntity
  8
1
  6
Continuous
 62
     7
100
AcDbLine
 10
-5.0
 20
292.0000000000001
 30
0.0
 11
-189.0
 21
292.0000000000001
 31
0.0
  0
LINE
  5
5D
330
48
100
AcDbEntity
  8
1
  6
Continuous
 62
     7
100
AcDbLine
 10
-189.0
 20
292.0000000000001
 30
0.0
 11
-189.0
 21
4.99999999999989
 31
0.0
  0
LINE
  5
5E
102
{ACAD_REACTORS
330
A6
102
}
330
48
100
AcDbEntity
  8
1
  6
Continuous
 62
     7
100
AcDbLine
 10
-15.990365977924
 20
10.07749983983263
 30
0.0
 11
-15.990365977924
 21
14.92250016016737
 31
0.0
  0
LINE
  5
5F
102
{ACAD_REACTORS
330
A3
102
}
330
48
100
AcDbEntity
  8
1
  6
Continuous
 62
     7
100
AcDbLine
 10
-17.32369931125726
 20
12.5
 30
0.0
 11
-17.32369931125726
 21
14.23205080756884
 31
0.0
  0
LINE
  5
60
102
{ACAD_REACTORS
330
A3
102
}
330
48
100
AcDbEntity
  8
1
  6
Continuous
 62
     7
100
AcDbLine
 10
-17.32369931125726
 20
14.23205080756884
 30
0.0
 11
-18.17936174395987
 21
12.75
 31
0.0
  0
LINE
  5
61
102
{ACAD_REACTORS
330
A3
102
}
330
48
100
AcDbEntity
  8
1
  6
Continuous
 62
     7
100
AcDbLine
 10
-18.46803687855476
 20
12.75
 30
0.0
 11
-19.32369931125726
 21
14.23205080756884
 31
0.0
  0
LINE
  5
62
102
{ACAD_REACTORS
330
A3
102
}
330
48
100
AcDbEntity
  8
1
  6
Continuous
 62
     7
100
AcDbLine
 10
-19.32369931125726
 20
14.23205080756884
 30
0.0
 11
-19.32369931125726
 21
12.5
 31
0.0
  0
LINE
  5
63
330
48
100
AcDbEntity
  8
1
  6
Continuous
 62
     7
100
AcDbLine
 10
-26.74013458639888
 20
12.64436426434133
 30
0.0
 11
-18.32369931125726
 21
17.5
 31
0.0
  0
LINE
  5
64
330
48
100
AcDbEntity
  8
1
  6
Continuous
 62
     7
100
AcDbLine
 10
-18.32369931125726
 20
17.5
 30
0.0
 11
-9.90726403611586
 21
12.64436426434133
 31
0.0
  0
LINE
  5
65
330
48
100
AcDbEntity
  8
1
  6
Continuous
 62
     7
100
AcDbLine
 10
-9.90726403611586
 20
12.35563573565855
 30
0.0
 11
-18.32369931125726
 21
7.5
 31
0.0
  0
LINE
  5
66
330
48
100
AcDbEntity
  8
1
  6
Continuous
 62
     7
100
AcDbLine
 10
-18.32369931125726
 20
7.5
 30
0.0
 11
-26.74013458639888
 21
12.35563573565855
 31
0.0
  0
LINE
  5
67
102
{ACAD_REACTORS
330
A3
102
}
330
48
100
AcDbEntity
  8
1
  6
Continuous
 62
     7
100
AcDbLine
 10
-19.99036597792406
 20
12.5
 30
0.0
 11
-19.99036597792406
 21
15.73121731203457
 31
0.0
  0
LINE
  5
68
102
{ACAD_REACTORS
330
A3
102
}
330
48
100
AcDbEntity
  8
1
  6
Continuous
 62
     7
100
AcDbLine
 10
-19.49593229430059
 20
15.86370041827229
 30
0.0
 11
-18.32369931125726
 21
13.83333333333326
 31
0.0
  0
LINE
  5
69
102
{ACAD_REACTORS
330
A3
102
}
330
48
100
AcDbEntity
  8
1
  6
Continuous
 62
     7
100
AcDbLine
 10
-19.99036597792406
 20
12.5
 30
0.0
 11
-19.99036597792406
 21
10.84758507263291
 31
0.0
  0
LINE
  5
6A
102
{ACAD_REACTORS
330
A3
102
}
330
48
100
AcDbEntity
  8
1
  6
Continuous
 62
     7
100
AcDbLine
 10
-19.32369931125726
 20
10.84758507263291
 30
0.0
 11
-19.32369931125726
 21
12.5
 31
0.0
  0
LINE
  5
6B
102
{ACAD_REACTORS
330
A3
102
}
330
48
100
AcDbEntity
  8
1
  6
Continuous
 62
     7
100
AcDbLine
 10
-17.32369931125726
 20
12.5
 30
0.0
 11
-17.32369931125726
 21
9.3082690706018
 31
0.0
  0
LINE
  5
6C
102
{ACAD_REACTORS
330
A3
102
}
330
48
100
AcDbEntity
  8
1
  6
Continuous
 62
     7
100
AcDbLine
 10
-16.65703264459069
 20
9.3082690706018
 30
0.0
 11
-16.65703264459069
 21
15.73121731203457
 31
0.0
  0
LINE
  5
6D
102
{ACAD_REACTORS
330
A3
102
}
330
48
100
AcDbEntity
  8
1
  6
Continuous
 62
     7
100
AcDbLine
 10
-17.1514663282141
 20
15.86370041827229
 30
0.0
 11
-18.32369931125726
 21
13.83333333333326
 31
0.0
  0
LINE
  5
6E
102
{ACAD_REACTORS
330
A4
102
}
330
48
100
AcDbEntity
  8
1
  6
Continuous
 62
     7
100
AcDbLine
 10
-21.32369931125726
 20
10.27002114803258
 30
0.0
 11
-21.32369931125726
 21
14.92250016016737
 31
0.0
  0
LINE
  5
6F
102
{ACAD_REACTORS
330
A4
102
}
330
48
100
AcDbEntity
  8
1
  6
Continuous
 62
     7
100
AcDbLine
 10
-20.65703264459069
 20
14.92250016016737
 30
0.0
 11
-20.65703264459069
 21
10.2700211480327
 31
0.0
  0
LINE
  5
70
102
{ACAD_REACTORS
330
A4
102
}
330
48
100
AcDbEntity
  8
1
  6
Continuous
 62
     7
100
AcDbLine
 10
-20.65703264459069
 20
10.2700211480327
 30
0.0
 11
-18.49045849342747
 21
9.0200745223616
 31
0.0
  0
LINE
  5
71
102
{ACAD_REACTORS
330
A4
102
}
330
48
100
AcDbEntity
  8
1
  6
Continuous
 62
     7
100
AcDbLine
 10
-18.8236067957539
 20
8.44261746499581
 30
0.0
 11
-20.99018094691701
 21
9.69256409066691
 31
0.0
  0
LINE
  5
72
102
{ACAD_REACTORS
330
A5
102
}
330
48
100
AcDbEntity
  8
1
  6
Continuous
 62
     7
100
AcDbLine
 10
-21.99036597792406
 20
14.15326939093666
 30
0.0
 11
-21.99036597792406
 21
11.0392519172633
 31
0.0
  0
LINE
  5
73
102
{ACAD_REACTORS
330
A5
102
}
330
48
100
AcDbEntity
  8
1
  6
Continuous
 62
     7
100
AcDbLine
 10
-21.99036597792406
 20
11.0392519172633
 30
0.0
 11
-21.99036597792406
 21
10.84673060906323
 31
0.0
  0
LINE
  5
74
102
{ACAD_REACTORS
330
A5
102
}
330
48
100
AcDbEntity
  8
1
  6
Continuous
 62
     7
100
AcDbLine
 10
-22.65703264459069
 20
10.84673060906323
 30
0.0
 11
-22.65703264459069
 21
14.15326939093666
 31
0.0
  0
LINE
  5
75
102
{ACAD_REACTORS
330
A6
102
}
330
48
100
AcDbEntity
  8
1
  6
Continuous
 62
     7
100
AcDbLine
 10
-15.49045849342747
 20
15.21122868885027
 30
0.0
 11
-14.15712516009415
 21
14.44199791961944
 31
0.0
  0
LINE
  5
76
102
{ACAD_REACTORS
330
A6
102
}
330
48
100
AcDbEntity
  8
1
  6
Continuous
 62
     7
100
AcDbLine
 10
-14.49027346242048
 20
13.86454086225376
 30
0.0
 11
-15.32369931125726
 21
14.34536346735195
 31
0.0
  0
LINE
  5
77
102
{ACAD_REACTORS
330
A6
102
}
330
48
100
AcDbEntity
  8
1
  6
Continuous
 62
     7
100
AcDbLine
 10
-15.32369931125726
 20
14.34536346735195
 30
0.0
 11
-15.32369931125726
 21
12.83333333333326
 31
0.0
  0
LINE
  5
78
102
{ACAD_REACTORS
330
A6
102
}
330
48
100
AcDbEntity
  8
1
  6
Continuous
 62
     7
100
AcDbLine
 10
-15.32369931125726
 20
12.83333333333326
 30
0.0
 11
-14.32369931125726
 21
12.83333333333326
 31
0.0
  0
LINE
  5
79
102
{ACAD_REACTORS
330
A6
102
}
330
48
100
AcDbEntity
  8
1
  6
Continuous
 62
     7
100
AcDbLine
 10
-14.32369931125726
 20
12.16666666666663
 30
0.0
 11
-15.32369931125726
 21
12.16666666666663
 31
0.0
  0
LINE
  5
7A
102
{ACAD_REACTORS
330
A6
102
}
330
48
100
AcDbEntity
  8
1
  6
Continuous
 62
     7
100
AcDbLine
 10
-15.32369931125726
 20
12.16666666666663
 30
0.0
 11
-15.32369931125726
 21
10.65463653264794
 31
0.0
  0
LINE
  5
7B
102
{ACAD_REACTORS
330
A6
102
}
330
48
100
AcDbEntity
  8
1
  6
Continuous
 62
     7
100
AcDbLine
 10
-15.32369931125726
 20
10.65463653264794
 30
0.0
 11
-14.49027346242048
 21
11.13545913774624
 31
0.0
  0
LINE
  5
7C
102
{ACAD_REACTORS
330
A6
102
}
330
48
100
AcDbEntity
  8
1
  6
Continuous
 62
     7
100
AcDbLine
 10
-14.15712516009415
 20
10.55800208038033
 30
0.0
 11
-15.49045849342747
 21
9.78877131114973
 31
0.0
  0
LINE
  5
7D
330
48
100
AcDbEntity
  8
1
  6
Continuous
 62
     7
100
AcDbLine
 10
-189.0
 20
25.0
 30
0.0
 11
-5.0
 21
25.0
 31
0.0
  0
LINE
  5
7E
330
48
100
AcDbEntity
  8
1
  6
Continuous
 62
     7
100
AcDbLine
 10
-182.0
 20
20.0
 30
0.0
 11
-182.0
 21
25.0
 31
0.0
  0
LINE
  5
7F
330
48
100
AcDbEntity
  8
1
  6
Continuous
 62
     7
100
AcDbLine
 10
-163.9999999999999
 20
20.0
 30
0.0
 11
-163.9999999999999
 21
25.0
 31
0.0
  0
LINE
  5
80
330
48
100
AcDbEntity
  8
1
  6
Continuous
 62
     7
100
AcDbLine
 10
-189.0
 20
30.0
 30
0.0
 11
-5.0
 21
30.0
 31
0.0
  0
LINE
  5
81
330
48
100
AcDbEntity
  8
1
  6
Continuous
 62
     7
100
AcDbLine
 10
-182.0
 20
25.0
 30
0.0
 11
-182.0
 21
30.0
 31
0.0
  0
LINE
  5
82
330
48
100
AcDbEntity
  8
1
  6
Continuous
 62
     7
100
AcDbLine
 10
-163.9999999999999
 20
25.0
 30
0.0
 11
-163.9999999999999
 21
30.0
 31
0.0
  0
LINE
  5
83
330
48
100
AcDbEntity
  8
1
  6
Continuous
 62
     7
100
AcDbLine
 10
-189.0
 20
35.0
 30
0.0
 11
-5.0
 21
35.0
 31
0.0
  0
LINE
  5
84
330
48
100
AcDbEntity
  8
1
  6
Continuous
 62
     7
100
AcDbLine
 10
-182.0
 20
30.0
 30
0.0
 11
-182.0
 21
35.0
 31
0.0
  0
LINE
  5
85
330
48
100
AcDbEntity
  8
1
  6
Continuous
 62
     7
100
AcDbLine
 10
-163.9999999999999
 20
30.0
 30
0.0
 11
-163.9999999999999
 21
35.0
 31
0.0
  0
LINE
  5
86
330
48
100
AcDbEntity
  8
1
  6
Continuous
 62
     7
100
AcDbLine
 10
-189.0
 20
40.0
 30
0.0
 11
-5.0
 21
40.0
 31
0.0
  0
LINE
  5
87
330
48
100
AcDbEntity
  8
1
  6
Continuous
 62
     7
100
AcDbLine
 10
-182.0
 20
35.0
 30
0.0
 11
-182.0
 21
40.0
 31
0.0
  0
LINE
  5
88
330
48
100
AcDbEntity
  8
1
  6
Continuous
 62
     7
100
AcDbLine
 10
-163.9999999999999
 20
35.0
 30
0.0
 11
-163.9999999999999
 21
40.0
 31
0.0
  0
LINE
  5
89
330
48
100
AcDbEntity
  8
1
  6
Continuous
 62
     7
100
AcDbLine
 10
-189.0
 20
4.99999999999989
 30
0.0
 11
-5.0
 21
4.99999999999989
 31
0.0
  0
LINE
  5
8A
330
48
100
AcDbEntity
  8
1
  6
Continuous
 62
     7
100
AcDbLine
 10
-189.0
 20
20.0
 30
0.0
 11
-5.0
 21
20.0
 31
0.0
  0
ARC
  5
8B
102
{ACAD_REACTORS
330
A3
102
}
330
48
100
AcDbEntity
  8
1
  6
Continuous
 62
     7
100
AcDbCircle
 10
-19.7253997654488
 20
15.73121731203457
 30
0.0
 40
0.2649662124753808
100
AcDbArc
 50
30.00000000000731
 51
180.0
  0
ARC
  5
8C
102
{ACAD_REACTORS
330
A3
102
}
330
48
100
AcDbEntity
  8
1
  6
Continuous
 62
     7
100
AcDbCircle
 10
-19.65703264459069
 20
10.84758507263291
 30
0.0
 40
0.3333333333333712
100
AcDbArc
 50
180.0
 51
0.0
  0
ARC
  5
8D
102
{ACAD_REACTORS
330
A3
102
}
330
48
100
AcDbEntity
  8
1
  6
Continuous
 62
     7
100
AcDbCircle
 10
-16.990365977924
 20
9.3082690706018
 30
0.0
 40
0.3333333333332611
100
AcDbArc
 50
180.0
 51
0.0
  0
ARC
  5
8E
102
{ACAD_REACTORS
330
A3
102
}
330
48
100
AcDbEntity
  8
1
  6
Continuous
 62
     7
100
AcDbCircle
 10
-16.921998857066
 20
15.73121731203457
 30
0.0
 40
0.2649662124753114
100
AcDbArc
 50
0.0
 51
149.9999999999808
  0
ARC
  5
8F
102
{ACAD_REACTORS
330
A4
102
}
330
48
100
AcDbEntity
  8
1
  6
Continuous
 62
     7
100
AcDbCircle
 10
-20.99036597792406
 20
14.92250016016737
 30
0.0
 40
0.3333333333333712
100
AcDbArc
 50
0.0
 51
180.0
  0
ARC
  5
90
102
{ACAD_REACTORS
330
A4
102
}
330
48
100
AcDbEntity
  8
1
  6
Continuous
 62
     7
100
AcDbCircle
 10
-18.65703264459069
 20
8.7313459936787
 30
0.0
 40
0.3333333333333673
100
AcDbArc
 50
240.0183606311504
 51
60.01836063114937
  0
ARC
  5
91
102
{ACAD_REACTORS
330
A5
102
}
330
48
100
AcDbEntity
  8
1
  6
Continuous
 62
     7
100
AcDbCircle
 10
-22.32369931125726
 20
14.15326939093666
 30
0.0
 40
0.3333333333332007
100
AcDbArc
 50
0.0
 51
180.0
  0
ARC
  5
92
102
{ACAD_REACTORS
330
A5
102
}
330
48
100
AcDbEntity
  8
1
  6
Continuous
 62
     7
100
AcDbCircle
 10
-22.32369931125726
 20
10.84673060906323
 30
0.0
 40
0.3333333333334281
100
AcDbArc
 50
180.0
 51
0.0
  0
ARC
  5
93
102
{ACAD_REACTORS
330
A6
102
}
330
48
100
AcDbEntity
  8
1
  6
Continuous
 62
     7
100
AcDbCircle
 10
-14.32369931125726
 20
14.15326939093666
 30
0.0
 40
0.3333333333333773
100
AcDbArc
 50
240.0183606311493
 51
60.01836063115558
  0
ARC
  5
94
102
{ACAD_REACTORS
330
A6
102
}
330
48
100
AcDbEntity
  8
1
  6
Continuous
 62
     7
100
AcDbCircle
 10
-14.32369931125726
 20
12.5
 30
0.0
 40
0.3333333333333695
100
AcDbArc
 50
270.0
 51
90.0
  0
ARC
  5
95
102
{ACAD_REACTORS
330
A6
102
}
330
48
100
AcDbEntity
  8
1
  6
Continuous
 62
     7
100
AcDbCircle
 10
-14.32369931125726
 20
10.84673060906323
 30
0.0
 40
0.3333333333333198
100
AcDbArc
 50
299.9816393688342
 51
119.9816393688413
  0
ARC
  5
96
102
{ACAD_REACTORS
330
A3
102
}
330
48
100
AcDbEntity
  8
1
  6
Continuous
 62
     7
100
AcDbCircle
 10
-18.32369931125726
 20
12.83333333333326
 30
0.0
 40
0.166666666666709
100
AcDbArc
 50
209.9999999999622
 51
330.0000000000195
  0
ARC
  5
97
102
{ACAD_REACTORS
330
A4
102
}
330
48
100
AcDbEntity
  8
1
  6
Continuous
 62
     7
100
AcDbCircle
 10
-20.65703264459069
 20
10.2700211480327
 30
0.0
 40
0.6666666666665719
100
AcDbArc
 50
180.0000000000104
 51
240.018360631158
  0
ARC
  5
98
330
48
100
AcDbEntity
  8
1
  6
Continuous
 62
     7
100
AcDbCircle
 10
-26.65684751081716
 20
12.5
 30
0.0
 40
0.1666666666666407
100
AcDbArc
 50
119.9816393689046
 51
240.0183606311158
  0
ARC
  5
99
330
48
100
AcDbEntity
  8
1
  6
Continuous
 62
     7
100
AcDbCircle
 10
-9.99055111169736
 20
12.5
 30
0.0
 40
0.1666666666666302
100
AcDbArc
 50
299.9816393688164
 51
60.01836063116308
  0
ARC
  5
9A
102
{ACAD_REACTORS
330
A6
102
}
330
48
100
AcDbEntity
  8
1
  6
Continuous
 62
     7
100
AcDbCircle
 10
-15.65703264459069
 20
14.92250016016737
 30
0.0
 40
0.3333333333333749
100
AcDbArc
 50
60.01836063114941
 51
180.0
  0
ARC
  5
9B
102
{ACAD_REACTORS
330
A6
102
}
330
48
100
AcDbEntity
  8
1
  6
Continuous
 62
     7
100
AcDbCircle
 10
-15.65703264459069
 20
10.07749983983263
 30
0.0
 40
0.3333333333333108
100
AcDbArc
 50
180.0
 51
299.9816393688506
  0
MTEXT
  5
9D
330
48
100
AcDbEntity
  8
1
 62
     7
100
AcDbMText
 10
-174.0
 20
17.49999999999989
 30
0.0
 40
2.5
 41
0.0
 71
     5
 72
     1
  1
dimensions in mm
  7
CONVERTER_11
 73
     1
 44
0.60024009603842
  0
MTEXT
  5
9F
330
48
100
AcDbEntity
  8
1
 62
     7
100
AcDbMText
 10
-194.0000000000001
 20
151.4999999999997
 30
0.0
 40
4.0
 41
0.0
 71
     5
 72
     1
  1
Diritti riservati      All rights reserved
  7
CONVERTER_12
 11
0.0
 21
1.0
 31
0.0
 73
     1
 44
1.32052821128451
  0
MTEXT
  5
A0
330
48
100
AcDbEntity
  8
1
 62
     7
100
AcDbMText
 10
-188.0
 20
12.49999999999989
 30
0.0
 40
3.0
 41
0.0
 71
     4
 72
     1
  1
Date
  7
CONVERTER_12
 73
     1
 44
1.32052821128451
  0
MTEXT
  5
A1
330
48
100
AcDbEntity
  8
1
 62
     7
100
AcDbMText
 10
-188.0
 20
7.49999999999989
 30
0.0
 40
3.0
 41
0.0
 71
     4
 72
     1
  1
Sign.
  7
CONVERTER_12
 73
     1
 44
1.32052821128451
  0
MTEXT
  5
A2
330
48
100
AcDbEntity
  8
1
 62
     7
100
AcDbMText
 10
-40.32369931125726
 20
16.26063942075598
 30
0.0
 40
3.0
 41
0.0
 71
     5
 72
     1
  1
Scale
  7
CONVERTER_12
 73
     1
 44
1.32052821128451
  0
HATCH
  5
A3
330
48
100
AcDbEntity
  8
1
  6
Continuous
 62
     7
100
AcDbHatch
 10
0.0
 20
0.0
 30
0.0
210
0.0
220
0.0
230
1.0
  2
SOLID
 70
     1
 71
     1
 91
        1
 92
        1
 93
       16
 72
     2
 10
-19.7253997654488
 20
15.73121731203457
 40
0.2649662124753808
 50
30.00000000000731
 51
180.0
 73
     1
 72
     1
 10
-19.99036597792406
 20
15.73121731203457
 11
-19.99036597792406
 21
12.5
 72
     1
 10
-19.99036597792406
 20
12.5
 11
-19.99036597792406
 21
10.84758507263291
 72
     2
 10
-19.65703264459069
 20
10.84758507263291
 40
0.3333333333333712
 50
180.0
 51
360.0
 73
     1
 72
     1
 10
-19.32369931125726
 20
10.84758507263291
 11
-19.32369931125726
 21
12.5
 72
     1
 10
-19.32369931125726
 20
12.5
 11
-19.32369931125726
 21
14.23205080756884
 72
     1
 10
-19.32369931125726
 20
14.23205080756884
 11
-18.46803687855476
 21
12.75
 72
     2
 10
-18.32369931125726
 20
12.83333333333326
 40
0.166666666666709
 50
209.9999999999622
 51
330.0000000000195
 73
     1
 72
     1
 10
-18.17936174395987
 20
12.75
 11
-17.32369931125726
 21
14.23205080756884
 72
     1
 10
-17.32369931125726
 20
14.23205080756884
 11
-17.32369931125726
 21
12.5
 72
     1
 10
-17.32369931125726
 20
12.5
 11
-17.32369931125726
 21
9.308269070601796
 72
     2
 10
-16.990365977924
 20
9.308269070601796
 40
0.3333333333332611
 50
180.0
 51
360.0
 73
     1
 72
     1
 10
-16.65703264459069
 20
9.308269070601796
 11
-16.65703264459069
 21
15.73121731203457
 72
     2
 10
-16.921998857066
 20
15.73121731203457
 40
0.2649662124753114
 50
0.0
 51
149.9999999999808
 73
     1
 72
     1
 10
-17.1514663282141
 20
15.86370041827229
 11
-18.32369931125726
 21
13.83333333333326
 72
     1
 10
-18.32369931125726
 20
13.83333333333326
 11
-19.49593229430059
 21
15.86370041827229
 97
       16
330
6D
330
8E
330
6C
330
8D
330
6B
330
5F
330
60
330
96
330
61
330
62
330
6A
330
8C
330
69
330
67
330
8B
330
68
 75
     0
 76
     1
 98
        1
 10
0.0
 20
0.0
  0
HATCH
  5
A4
330
48
100
AcDbEntity
  8
1
  6
Continuous
 62
     7
100
AcDbHatch
 10
0.0
 20
0.0
 30
0.0
210
0.0
220
0.0
230
1.0
  2
SOLID
 70
     1
 71
     1
 91
        1
 92
        1
 93
        7
 72
     1
 10
-20.65703264459069
 20
14.92250016016737
 11
-20.65703264459069
 21
10.2700211480327
 72
     1
 10
-20.65703264459069
 20
10.2700211480327
 11
-18.49045849342747
 21
9.020074522361597
 72
     2
 10
-18.65703264459069
 20
8.731345993678701
 40
0.3333333333333673
 50
299.9816393688506
 51
479.9816393688495
 73
     0
 72
     1
 10
-18.8236067957539
 20
8.442617464995806
 11
-20.99018094691701
 21
9.692564090666906
 72
     2
 10
-20.65703264459069
 20
10.2700211480327
 40
0.6666666666665719
 50
119.981639368842
 51
179.9999999999896
 73
     0
 72
     1
 10
-21.32369931125726
 20
10.27002114803258
 11
-21.32369931125726
 21
14.92250016016737
 72
     2
 10
-20.99036597792406
 20
14.92250016016737
 40
0.3333333333333712
 50
180.0
 51
360.0
 73
     0
 97
        7
330
6F
330
70
330
90
330
71
330
97
330
6E
330
8F
 75
     0
 76
     1
 98
        1
 10
0.0
 20
0.0
  0
HATCH
  5
A5
330
48
100
AcDbEntity
  8
1
  6
Continuous
 62
     7
100
AcDbHatch
 10
0.0
 20
0.0
 30
0.0
210
0.0
220
0.0
230
1.0
  2
SOLID
 70
     1
 71
     1
 91
        1
 92
        1
 93
        5
 72
     1
 10
-21.99036597792406
 20
14.15326939093666
 11
-21.99036597792406
 21
11.0392519172633
 72
     1
 10
-21.99036597792406
 20
11.0392519172633
 11
-21.99036597792406
 21
10.84673060906323
 72
     2
 10
-22.32369931125726
 20
10.84673060906323
 40
0.3333333333334281
 50
0.0
 51
180.0
 73
     0
 72
     1
 10
-22.65703264459069
 20
10.84673060906323
 11
-22.65703264459069
 21
14.15326939093666
 72
     2
 10
-22.32369931125726
 20
14.15326939093666
 40
0.3333333333332007
 50
180.0
 51
360.0
 73
     0
 97
        5
330
72
330
73
330
92
330
74
330
91
 75
     0
 76
     1
 98
        1
 10
0.0
 20
0.0
  0
HATCH
  5
A6
330
48
100
AcDbEntity
  8
1
  6
Continuous
 62
     7
100
AcDbHatch
 10
0.0
 20
0.0
 30
0.0
210
0.0
220
0.0
230
1.0
  2
SOLID
 70
     1
 71
     1
 91
        1
 92
        1
 93
       14
 72
     1
 10
-14.49027346242048
 20
13.86454086225376
 11
-15.32369931125726
 21
14.34536346735195
 72
     1
 10
-15.32369931125726
 20
14.34536346735195
 11
-15.32369931125726
 21
12.83333333333326
 72
     1
 10
-15.32369931125726
 20
12.83333333333326
 11
-14.32369931125726
 21
12.83333333333326
 72
     2
 10
-14.32369931125726
 20
12.5
 40
0.3333333333333695
 50
270.0
 51
450.0
 73
     0
 72
     1
 10
-14.32369931125726
 20
12.16666666666663
 11
-15.32369931125726
 21
12.16666666666663
 72
     1
 10
-15.32369931125726
 20
12.16666666666663
 11
-15.32369931125726
 21
10.65463653264794
 72
     1
 10
-15.32369931125726
 20
10.65463653264794
 11
-14.49027346242048
 21
11.13545913774624
 72
     2
 10
-14.32369931125726
 20
10.84673060906323
 40
0.3333333333333198
 50
240.0183606311588
 51
420.0183606311658
 73
     0
 72
     1
 10
-14.15712516009415
 20
10.55800208038033
 11
-15.49045849342747
 21
9.78877131114973
 72
     2
 10
-15.65703264459069
 20
10.07749983983263
 40
0.3333333333333108
 50
60.01836063114943
 51
180.0
 73
     0
 72
     1
 10
-15.990365977924
 20
10.07749983983263
 11
-15.990365977924
 21
14.92250016016737
 72
     2
 10
-15.65703264459069
 20
14.92250016016737
 40
0.3333333333333749
 50
180.0
 51
299.9816393688506
 73
     0
 72
     1
 10
-15.49045849342747
 20
15.21122868885027
 11
-14.15712516009415
 21
14.44199791961944
 72
     2
 10
-14.32369931125726
 20
14.15326939093666
 40
0.3333333333333773
 50
299.9816393688444
 51
479.9816393688507
 73
     0
 97
       14
330
75
330
9A
330
5E
330
9B
330
7C
330
95
330
7B
330
7A
330
79
330
94
330
78
330
77
330
76
330
93
 75
     0
 76
     1
 98
        1
 10
0.0
 20
0.0
  0
ENDBLK
  5
4A
330
48
100
AcDbEntity
  8
0
100
AcDbBlockEnd
  0
BLOCK
  5
4D
330
4B
100
AcDbEntity
  8
0
100
AcDbBlockBegin
  2
A4
 70
     0
 10
0.0
 20
0.0
 30
0.0
  3
A4
  1

  0
INSERT
  5
4C
330
4B
100
AcDbEntity
  8
1
100
AcDbBlockReference
  2
_formato_A4
 10
0.0
 20
0.0
 30
0.0
  0
ENDBLK
  5
4E
330
4B
100
AcDbEntity
  8
0
100
AcDbBlockEnd
  0
BLOCK
  5
29D
330
295
100
AcDbEntity
  8
0
100
AcDbBlockBegin
  2
*D3
 70
     1
 10
0.0
 20
0.0
 30
0.0
  3
*D3
  1

  0
LINE
  5
296
330
295
100
AcDbEntity
  8
1
  6
Continuous
 62
     2
100
AcDbLine
 10
-66.76208724563509
 20
186.350662172453
 30
0.0
 11
-36.26208724563503
 21
186.350662172453
 31
0.0
  0
LINE
  5
297
330
295
100
AcDbEntity
  8
1
  6
Continuous
 62
     2
100
AcDbLine
 10
-66.76208724563509
 20
206.0728717612659
 30
0.0
 11
-66.76208724563509
 21
185.350662172453
 31
0.0
  0
LINE
  5
298
330
295
100
AcDbEntity
  8
1
  6
Continuous
 62
     2
100
AcDbLine
 10
-36.26208724563503
 20
206.0728717612659
 30
0.0
 11
-36.26208724563503
 21
185.350662172453
 31
0.0
  0
SOLID
  5
299
330
295
100
AcDbEntity
  8
1
 62
     2
100
AcDbTrace
 10
-63.76208724563509
 20
186.7456196652152
 30
0.0
 11
-63.76208724563509
 21
185.9557046796908
 31
0.0
 12
-66.76208724563509
 22
186.350662172453
 32
0.0
 13
-66.76208724563509
 23
186.350662172453
 33
0.0
  0
SOLID
  5
29A
330
295
100
AcDbEntity
  8
1
 62
     2
100
AcDbTrace
 10
-39.26208724563503
 20
185.9557046796908
 30
0.0
 11
-39.26208724563503
 21
186.7456196652152
 31
0.0
 12
-36.26208724563503
 22
186.350662172453
 32
0.0
 13
-36.26208724563503
 23
186.350662172453
 33
0.0
  0
MTEXT
  5
29C
330
295
100
AcDbEntity
  8
1
 62
     4
100
AcDbMText
 10
-55.63708724563509
 20
188.650662172453
 30
0.0
 40
3.0
 41
0.0
 71
     7
 72
     1
  1
30,5
  7
CONVERTER_14
 11
0.9999999999970619
 21
2.424068405545306E-6
 31
0.0
 73
     1
 44
0.60024009603842
  0
ENDBLK
  5
29E
330
295
100
AcDbEntity
  8
0
100
AcDbBlockEnd
  0
BLOCK
  5
2AA
330
2A1
100
AcDbEntity
  8
0
100
AcDbBlockBegin
  2
*D4
 70
     1
 10
0.0
 20
0.0
 30
0.0
  3
*D4
  1

  0
LINE
  5
2A2
330
2A1
100
AcDbEntity
  8
1
  6
Continuous
 62
     2
100
AcDbLine
 10
-166.3620872456351
 20
186.338526330691
 30
0.0
 11
-160.3620872456351
 21
186.338526330691
 31
0.0
  0
LINE
  5
2A3
330
2A1
100
AcDbEntity
  8
1
  6
Continuous
 62
     2
100
AcDbLine
 10
-160.3620872456351
 20
186.338526330691
 30
0.0
 11
-152.3620872456351
 21
186.338526330691
 31
0.0
  0
LINE
  5
2A4
330
2A1
100
AcDbEntity
  8
1
  6
Continuous
 62
     2
100
AcDbLine
 10
-152.3620872456351
 20
186.338526330691
 30
0.0
 11
-146.3620872456351
 21
186.338526330691
 31
0.0
  0
LINE
  5
2A5
330
2A1
100
AcDbEntity
  8
1
  6
Continuous
 62
     2
100
AcDbLine
 10
-160.3620872456351
 20
224.5728717612658
 30
0.0
 11
-160.3620872456351
 21
185.338526330691
 31
0.0
  0
LINE
  5
2A6
330
2A1
100
AcDbEntity
  8
1
  6
Continuous
 62
     2
100
AcDbLine
 10
-152.3620872456351
 20
206.0728717612659
 30
0.0
 11
-152.3620872456351
 21
185.338526330691
 31
0.0
  0
SOLID
  5
2A7
330
2A1
100
AcDbEntity
  8
1
 62
     2
100
AcDbTrace
 10
-163.3620872456351
 20
185.9435688379288
 30
0.0
 11
-163.3620872456351
 21
186.7334838234532
 31
0.0
 12
-160.3620872456351
 22
186.338526330691
 32
0.0
 13
-160.3620872456351
 23
186.338526330691
 33
0.0
  0
SOLID
  5
2A8
330
2A1
100
AcDbEntity
  8
1
 62
     2
100
AcDbTrace
 10
-149.3620872456351
 20
186.7334838234532
 30
0.0
 11
-149.3620872456351
 21
185.9435688379288
 31
0.0
 12
-152.3620872456351
 22
186.338526330691
 32
0.0
 13
-152.3620872456351
 23
186.338526330691
 33
0.0
  0
MTEXT
  5
2A9
330
2A1
100
AcDbEntity
  8
1
 62
     4
100
AcDbMText
 10
-157.2620872456351
 20
188.338526330691
 30
0.0
 40
3.0
 41
0.0
 71
     7
 72
     1
  1
8
  7
CONVERTER_14
 11
0.9999999999970619
 21
2.424068405545306E-6
 31
0.0
 73
     1
 44
0.60024009603842
  0
ENDBLK
  5
2AB
330
2A1
100
AcDbEntity
  8
0
100
AcDbBlockEnd
  0
BLOCK
  5
2B5
330
2AE
100
AcDbEntity
  8
0
100
AcDbBlockBegin
  2
*D5
 70
     1
 10
0.0
 20
0.0
 30
0.0
  3
*D5
  1

  0
LINE
  5
2AF
330
2AE
100
AcDbEntity
  8
1
  6
Continuous
 62
     2
100
AcDbLine
 10
-152.3620872456351
 20
186.338526330691
 30
0.0
 11
-110.3620872456351
 21
186.338526330691
 31
0.0
  0
LINE
  5
2B0
330
2AE
100
AcDbEntity
  8
1
  6
Continuous
 62
     2
100
AcDbLine
 10
-152.3620872456351
 20
206.0728717612659
 30
0.0
 11
-152.3620872456351
 21
185.338526330691
 31
0.0
  0
LINE
  5
2B1
330
2AE
100
AcDbEntity
  8
1
  6
Continuous
 62
     2
100
AcDbLine
 10
-110.3620872456351
 20
206.0728717612659
 30
0.0
 11
-110.3620872456351
 21
185.338526330691
 31
0.0
  0
SOLID
  5
2B2
330
2AE
100
AcDbEntity
  8
1
 62
     2
100
AcDbTrace
 10
-149.3620872456351
 20
186.7334838234532
 30
0.0
 11
-149.3620872456351
 21
185.9435688379288
 31
0.0
 12
-152.3620872456351
 22
186.338526330691
 32
0.0
 13
-152.3620872456351
 23
186.338526330691
 33
0.0
  0
SOLID
  5
2B3
330
2AE
100
AcDbEntity
  8
1
 62
     2
100
AcDbTrace
 10
-113.3620872456351
 20
185.9435688379288
 30
0.0
 11
-113.3620872456351
 21
186.7334838234532
 31
0.0
 12
-110.3620872456351
 22
186.338526330691
 32
0.0
 13
-110.3620872456351
 23
186.338526330691
 33
0.0
  0
MTEXT
  5
2B4
330
2AE
100
AcDbEntity
  8
1
 62
     4
100
AcDbMText
 10
-133.6120872456351
 20
188.338526330691
 30
0.0
 40
3.0
 41
0.0
 71
     7
 72
     1
  1
42
  7
CONVERTER_14
 11
0.9999999999970619
 21
2.424068405545306E-6
 31
0.0
 73
     1
 44
0.60024009603842
  0
ENDBLK
  5
2B6
330
2AE
100
AcDbEntity
  8
0
100
AcDbBlockEnd
  0
BLOCK
  5
2C1
330
2B9
100
AcDbEntity
  8
0
100
AcDbBlockBegin
  2
*D6
 70
     1
 10
0.0
 20
0.0
 30
0.0
  3
*D6
  1

  0
LINE
  5
2BA
330
2B9
100
AcDbEntity
  8
1
  6
Continuous
 62
     2
100
AcDbLine
 10
-23.96208724563508
 20
126.1029253591591
 30
0.0
 11
-23.96208724563508
 21
114.6029253591591
 31
0.0
  0
LINE
  5
2BB
330
2B9
100
AcDbEntity
  8
1
  6
Continuous
 62
     2
100
AcDbLine
 10
-23.96208724563508
 20
107.6029253591591
 30
0.0
 11
-23.96208724563508
 21
96.1029253591591
 31
0.0
  0
LINE
  5
2BC
330
2B9
100
AcDbEntity
  8
1
  6
Continuous
 62
     2
100
AcDbLine
 10
-47.41208724563506
 20
96.1029253591591
 30
0.0
 11
-22.96208724563508
 21
96.1029253591591
 31
0.0
  0
LINE
  5
2BD
330
2B9
100
AcDbEntity
  8
1
  6
Continuous
 62
     2
100
AcDbLine
 10
-47.41208724563506
 20
126.1029253591591
 30
0.0
 11
-22.96208724563508
 21
126.1029253591591
 31
0.0
  0
SOLID
  5
2BE
330
2B9
100
AcDbEntity
  8
1
 62
     2
100
AcDbTrace
 10
-23.56712975287289
 20
123.1029253591591
 30
0.0
 11
-24.35704473839727
 21
123.1029253591591
 31
0.0
 12
-23.96208724563508
 22
126.1029253591591
 32
0.0
 13
-23.96208724563508
 23
126.1029253591591
 33
0.0
  0
SOLID
  5
2BF
330
2B9
100
AcDbEntity
  8
1
 62
     2
100
AcDbTrace
 10
-24.35704473839727
 20
99.1029253591591
 30
0.0
 11
-23.56712975287289
 21
99.1029253591591
 31
0.0
 12
-23.96208724563508
 22
96.1029253591591
 32
0.0
 13
-23.96208724563508
 23
96.1029253591591
 33
0.0
  0
MTEXT
  5
2C0
330
2B9
100
AcDbEntity
  8
1
 62
     4
100
AcDbMText
 10
-26.21208724563508
 20
109.6029253591591
 30
0.0
 40
3.0
 41
0.0
 71
     7
 72
     1
  1
30
  7
CONVERTER_14
 11
0.9999999999970619
 21
2.424068405545306E-6
 31
0.0
 73
     1
 44
0.60024009603842
  0
ENDBLK
  5
2C2
330
2B9
100
AcDbEntity
  8
0
100
AcDbBlockEnd
  0
BLOCK
  5
2CC
330
2C5
100
AcDbEntity
  8
0
100
AcDbBlockBegin
  2
*D7
 70
     1
 10
0.0
 20
0.0
 30
0.0
  3
*D7
  1

  0
LINE
  5
2C6
330
2C5
100
AcDbEntity
  8
1
  6
Continuous
 62
     2
100
AcDbLine
 10
-67.81208724563498
 20
261.6829247606119
 30
0.0
 11
-35.21208724563502
 21
261.6829247606119
 31
0.0
  0
LINE
  5
2C7
330
2C5
100
AcDbEntity
  8
1
  6
Continuous
 62
     2
100
AcDbLine
 10
-35.21208724563502
 20
249.2292584791147
 30
0.0
 11
-35.21208724563502
 21
262.6829247606119
 31
0.0
  0
LINE
  5
2C8
330
2C5
100
AcDbEntity
  8
1
  6
Continuous
 62
     2
100
AcDbLine
 10
-67.81208724563498
 20
249.2292584791147
 30
0.0
 11
-67.81208724563498
 21
262.6829247606119
 31
0.0
  0
SOLID
  5
2C9
330
2C5
100
AcDbEntity
  8
1
 62
     2
100
AcDbTrace
 10
-64.81208724563498
 20
262.0778822533741
 30
0.0
 11
-64.81208724563498
 21
261.2879672678498
 31
0.0
 12
-67.81208724563498
 22
261.6829247606119
 32
0.0
 13
-67.81208724563498
 23
261.6829247606119
 33
0.0
  0
SOLID
  5
2CA
330
2C5
100
AcDbEntity
  8
1
 62
     2
100
AcDbTrace
 10
-38.21208724563502
 20
261.2879672678498
 30
0.0
 11
-38.21208724563502
 21
262.0778822533741
 31
0.0
 12
-35.21208724563502
 22
261.6829247606119
 32
0.0
 13
-35.21208724563502
 23
261.6829247606119
 33
0.0
  0
MTEXT
  5
2CB
330
2C5
100
AcDbEntity
  8
1
 62
     4
100
AcDbMText
 10
-53.76208724563503
 20
263.6829247606119
 30
0.0
 40
3.0
 41
0.0
 71
     7
 72
     1
  1
33
  7
CONVERTER_14
 11
0.9999999999970619
 21
2.424068405545306E-6
 31
0.0
 73
     1
 44
0.60024009603842
  0
ENDBLK
  5
2CD
330
2C5
100
AcDbEntity
  8
0
100
AcDbBlockEnd
  0
BLOCK
  5
2D7
330
2D0
100
AcDbEntity
  8
0
100
AcDbBlockBegin
  2
*D8
 70
     1
 10
0.0
 20
0.0
 30
0.0
  3
*D8
  1

  0
LINE
  5
2D1
330
2D0
100
AcDbEntity
  8
1
  6
Continuous
 62
     2
100
AcDbLine
 10
-143.855091818563
 20
78.3402054323986
 30
0.0
 11
-121.855091818563
 21
78.3402054323986
 31
0.0
  0
LINE
  5
2D2
330
2D0
100
AcDbEntity
  8
1
  6
Continuous
 62
     2
100
AcDbLine
 10
-121.855091818563
 20
105.1594747273783
 30
0.0
 11
-121.855091818563
 21
77.3402054323986
 31
0.0
  0
LINE
  5
2D3
330
2D0
100
AcDbEntity
  8
1
  6
Continuous
 62
     2
100
AcDbLine
 10
-143.855091818563
 20
105.1594747273783
 30
0.0
 11
-143.855091818563
 21
77.3402054323986
 31
0.0
  0
SOLID
  5
2D4
330
2D0
100
AcDbEntity
  8
1
 62
     2
100
AcDbTrace
 10
-140.855091818563
 20
78.7351629251608
 30
0.0
 11
-140.855091818563
 21
77.94524793963642
 31
0.0
 12
-143.855091818563
 22
78.3402054323986
 32
0.0
 13
-143.855091818563
 23
78.3402054323986
 33
0.0
  0
SOLID
  5
2D5
330
2D0
100
AcDbEntity
  8
1
 62
     2
100
AcDbTrace
 10
-124.855091818563
 20
77.94524793963642
 30
0.0
 11
-124.855091818563
 21
78.7351629251608
 31
0.0
 12
-121.855091818563
 22
78.3402054323986
 32
0.0
 13
-121.855091818563
 23
78.3402054323986
 33
0.0
  0
MTEXT
  5
2D6
330
2D0
100
AcDbEntity
  8
1
 62
     4
100
AcDbMText
 10
-135.105091818563
 20
80.3402054323986
 30
0.0
 40
3.0
 41
0.0
 71
     7
 72
     1
  1
22
  7
CONVERTER_14
 11
0.9999999999970619
 21
2.424068405545306E-6
 31
0.0
 73
     1
 44
0.60024009603842
  0
ENDBLK
  5
2D8
330
2D0
100
AcDbEntity
  8
0
100
AcDbBlockEnd
  0
BLOCK
  5
2E3
330
2DB
100
AcDbEntity
  8
0
100
AcDbBlockBegin
  2
*D9
 70
     1
 10
0.0
 20
0.0
 30
0.0
  3
*D9
  1

  0
LINE
  5
2DC
330
2DB
100
AcDbEntity
  8
1
  6
Continuous
 62
     2
100
AcDbLine
 10
-104.0860545367956
 20
127.6594747273784
 30
0.0
 11
-104.0860545367956
 21
120.1594747273784
 31
0.0
  0
LINE
  5
2DD
330
2DB
100
AcDbEntity
  8
1
  6
Continuous
 62
     2
100
AcDbLine
 10
-104.0860545367956
 20
113.1594747273784
 30
0.0
 11
-104.0860545367956
 21
105.6594747273784
 31
0.0
  0
LINE
  5
2DE
330
2DB
100
AcDbEntity
  8
1
  6
Continuous
 62
     2
100
AcDbLine
 10
-121.355091818563
 20
105.6594747273784
 30
0.0
 11
-103.0860545367956
 21
105.6594747273784
 31
0.0
  0
LINE
  5
2DF
330
2DB
100
AcDbEntity
  8
1
  6
Continuous
 62
     2
100
AcDbLine
 10
-121.355091818563
 20
127.6594747273784
 30
0.0
 11
-103.0860545367956
 21
127.6594747273784
 31
0.0
  0
SOLID
  5
2E0
330
2DB
100
AcDbEntity
  8
1
 62
     2
100
AcDbTrace
 10
-103.6910970440334
 20
124.6594747273784
 30
0.0
 11
-104.4810120295578
 21
124.6594747273784
 31
0.0
 12
-104.0860545367956
 22
127.6594747273784
 32
0.0
 13
-104.0860545367956
 23
127.6594747273784
 33
0.0
  0
SOLID
  5
2E1
330
2DB
100
AcDbEntity
  8
1
 62
     2
100
AcDbTrace
 10
-104.4810120295578
 20
108.6594747273784
 30
0.0
 11
-103.6910970440334
 21
108.6594747273784
 31
0.0
 12
-104.0860545367956
 22
105.6594747273784
 32
0.0
 13
-104.0860545367956
 23
105.6594747273784
 33
0.0
  0
MTEXT
  5
2E2
330
2DB
100
AcDbEntity
  8
1
 62
     4
100
AcDbMText
 10
-106.3360545367956
 20
115.1594747273784
 30
0.0
 40
3.0
 41
0.0
 71
     7
 72
     1
  1
22
  7
CONVERTER_14
 11
0.9999999999970619
 21
2.424068405545306E-6
 31
0.0
 73
     1
 44
0.60024009603842
  0
ENDBLK
  5
2E4
330
2DB
100
AcDbEntity
  8
0
100
AcDbBlockEnd
  0
BLOCK
  5
2EF
330
2E7
100
AcDbEntity
  8
0
100
AcDbBlockBegin
  2
*D10
 70
     1
 10
0.0
 20
0.0
 30
0.0
  3
*D10
  1

  0
LINE
  5
2E8
330
2E7
100
AcDbEntity
  8
1
  6
Continuous
 62
     2
100
AcDbLine
 10
-94.72369904051703
 20
131.6594747273784
 30
0.0
 11
-94.72369904051703
 21
120.1594747273784
 31
0.0
  0
LINE
  5
2E9
330
2E7
100
AcDbEntity
  8
1
  6
Continuous
 62
     2
100
AcDbLine
 10
-94.72369904051703
 20
113.1594747273784
 30
0.0
 11
-94.72369904051703
 21
101.6594747273784
 31
0.0
  0
LINE
  5
2EA
330
2E7
100
AcDbEntity
  8
1
  6
Continuous
 62
     2
100
AcDbLine
 10
-128.7550918185631
 20
101.6594747273784
 30
0.0
 11
-93.72369904051703
 21
101.6594747273784
 31
0.0
  0
LINE
  5
2EB
330
2E7
100
AcDbEntity
  8
1
  6
Continuous
 62
     2
100
AcDbLine
 10
-128.7550918185631
 20
131.6594747273784
 30
0.0
 11
-93.72369904051703
 21
131.6594747273784
 31
0.0
  0
SOLID
  5
2EC
330
2E7
100
AcDbEntity
  8
1
 62
     2
100
AcDbTrace
 10
-94.32874154775484
 20
128.6594747273784
 30
0.0
 11
-95.11865653327922
 21
128.6594747273784
 31
0.0
 12
-94.72369904051703
 22
131.6594747273784
 32
0.0
 13
-94.72369904051703
 23
131.6594747273784
 33
0.0
  0
SOLID
  5
2ED
330
2E7
100
AcDbEntity
  8
1
 62
     2
100
AcDbTrace
 10
-95.11865653327922
 20
104.6594747273784
 30
0.0
 11
-94.32874154775484
 21
104.6594747273784
 31
0.0
 12
-94.72369904051703
 22
101.6594747273784
 32
0.0
 13
-94.72369904051703
 23
101.6594747273784
 33
0.0
  0
MTEXT
  5
2EE
330
2E7
100
AcDbEntity
  8
1
 62
     4
100
AcDbMText
 10
-96.97369904051703
 20
115.1594747273784
 30
0.0
 40
3.0
 41
0.0
 71
     7
 72
     1
  1
30
  7
CONVERTER_14
 11
0.9999999999970619
 21
2.424068405545306E-6
 31
0.0
 73
     1
 44
0.60024009603842
  0
ENDBLK
  5
2F0
330
2E7
100
AcDbEntity
  8
0
100
AcDbBlockEnd
  0
BLOCK
  5
2FB
330
2F3
100
AcDbEntity
  8
0
100
AcDbBlockBegin
  2
*D11
 70
     1
 10
0.0
 20
0.0
 30
0.0
  3
*D11
  1

  0
LINE
  5
2F4
330
2F3
100
AcDbEntity
  8
1
  6
Continuous
 62
     2
100
AcDbLine
 10
-99.912087245635
 20
230.5728717612658
 30
0.0
 11
-99.912087245635
 21
222.0728717612658
 31
0.0
  0
LINE
  5
2F5
330
2F3
100
AcDbEntity
  8
1
  6
Continuous
 62
     2
100
AcDbLine
 10
-99.912087245635
 20
215.0728717612658
 30
0.0
 11
-99.912087245635
 21
206.5728717612658
 31
0.0
  0
LINE
  5
2F6
330
2F3
100
AcDbEntity
  8
1
  6
Continuous
 62
     2
100
AcDbLine
 10
-109.862087245635
 20
206.5728717612658
 30
0.0
 11
-98.912087245635
 21
206.5728717612658
 31
0.0
  0
LINE
  5
2F7
330
2F3
100
AcDbEntity
  8
1
  6
Continuous
 62
     2
100
AcDbLine
 10
-118.8620872456351
 20
230.5728717612658
 30
0.0
 11
-98.912087245635
 21
230.5728717612658
 31
0.0
  0
SOLID
  5
2F8
330
2F3
100
AcDbEntity
  8
1
 62
     2
100
AcDbTrace
 10
-99.51712975287282
 20
227.5728717612658
 30
0.0
 11
-100.3070447383972
 21
227.5728717612658
 31
0.0
 12
-99.912087245635
 22
230.5728717612658
 32
0.0
 13
-99.912087245635
 23
230.5728717612658
 33
0.0
  0
SOLID
  5
2F9
330
2F3
100
AcDbEntity
  8
1
 62
     2
100
AcDbTrace
 10
-100.3070447383972
 20
209.5728717612658
 30
0.0
 11
-99.51712975287282
 21
209.5728717612658
 31
0.0
 12
-99.912087245635
 22
206.5728717612658
 32
0.0
 13
-99.912087245635
 23
206.5728717612658
 33
0.0
  0
MTEXT
  5
2FA
330
2F3
100
AcDbEntity
  8
1
 62
     4
100
AcDbMText
 10
-102.162087245635
 20
217.0728717612658
 30
0.0
 40
3.0
 41
0.0
 71
     7
 72
     1
  1
24
  7
CONVERTER_14
 11
0.9999999999970619
 21
2.424068405545306E-6
 31
0.0
 73
     1
 44
0.60024009603842
  0
ENDBLK
  5
2FC
330
2F3
100
AcDbEntity
  8
0
100
AcDbBlockEnd
  0
BLOCK
  5
305
330
2FF
100
AcDbEntity
  8
0
100
AcDbBlockBegin
  2
*D12
 70
     1
 10
0.0
 20
0.0
 30
0.0
  3
*D12
  1

  0
LINE
  5
300
330
2FF
100
AcDbEntity
  8
1
  6
Continuous
 62
     2
100
AcDbLine
 10
-54.48358383132125
 20
120.7184376359625
 30
0.0
 11
-44.40041886211844
 21
138.9895937426757
 31
0.0
  0
LINE
  5
301
330
2FF
100
AcDbEntity
  8
1
  6
Continuous
 62
     2
100
AcDbLine
 10
-44.40041886211844
 20
138.9895937426757
 30
0.0
 11
-30.55041886211842
 21
138.9895937426757
 31
0.0
  0
SOLID
  5
302
330
2FF
100
AcDbEntity
  8
1
 62
     2
100
AcDbTrace
 10
-49.61114165986616
 20
130.3649550752726
 30
0.0
 11
-48.91955018963445
 21
129.9832917122696
 31
0.0
 12
-50.71485645435337
 22
127.547544016602
 32
0.0
 13
-50.71485645435337
 23
127.547544016602
 33
0.0
  0
SOLID
  5
303
330
2FF
100
AcDbEntity
  8
1
 62
     2
100
AcDbTrace
 10
-53.41303283140389
 20
121.8408956430456
 30
0.0
 11
-54.1046243016356
 21
122.2225590060485
 31
0.0
 12
-52.30931803691669
 22
124.6583067017161
 32
0.0
 13
-52.30931803691669
 23
124.6583067017161
 33
0.0
  0
MTEXT
  5
304
330
2FF
100
AcDbEntity
  8
1
 62
     4
100
AcDbMText
 10
-38.56041886211121
 20
141.2895877794674
 30
0.0
 40
3.0
 41
0.0
 71
     7
 72
     1
  1
\C4;\U+00f8\C4;3,3
  7
CONVERTER_14
 11
0.9999999999970619
 21
2.424068405545306E-6
 31
0.0
 73
     1
 44
0.60024009603842
  0
ENDBLK
  5
306
330
2FF
100
AcDbEntity
  8
0
100
AcDbBlockEnd
  0
BLOCK
  5
30E
330
308
100
AcDbEntity
  8
0
100
AcDbBlockBegin
  2
*D13
 70
     1
 10
0.0
 20
0.0
 30
0.0
  3
*D13
  1

  0
LINE
  5
309
330
308
100
AcDbEntity
  8
1
  6
Continuous
 62
     2
100
AcDbLine
 10
-136.2401161670586
 20
126.5848702935243
 30
0.0
 11
-121.285048005923
 21
149.0045185400183
 31
0.0
  0
LINE
  5
30A
330
308
100
AcDbEntity
  8
1
  6
Continuous
 62
     2
100
AcDbLine
 10
-121.285048005923
 20
149.0045185400183
 30
0.0
 11
-107.435048005923
 21
149.0045185400183
 31
0.0
  0
SOLID
  5
30B
330
308
100
AcDbEntity
  8
1
 62
     2
100
AcDbTrace
 10
-130.6310165793622
 20
135.7053962233374
 30
0.0
 11
-129.9738844338032
 21
135.2670550005109
 31
0.0
 12
-131.9672165796133
 22
132.9905185133074
 32
0.0
 13
-131.9672165796133
 23
132.9905185133074
 33
0.0
  0
SOLID
  5
30C
330
308
100
AcDbEntity
  8
1
 62
     2
100
AcDbTrace
 10
-135.0791670577638
 20
127.6135532314194
 30
0.0
 11
-135.7362992033228
 21
128.0518944542459
 31
0.0
 12
-133.7429670575127
 22
130.3284309414494
 32
0.0
 13
-133.7429670575127
 23
130.3284309414494
 33
0.0
  0
MTEXT
  5
30D
330
308
100
AcDbEntity
  8
1
 62
     4
100
AcDbMText
 10
-115.4450480059158
 20
151.30451257681
 30
0.0
 40
3.0
 41
0.0
 71
     7
 72
     1
  1
\C4;\U+00f8\C4;3,3
  7
CONVERTER_14
 11
0.9999999999970619
 21
2.424068405545306E-6
 31
0.0
 73
     1
 44
0.60024009603842
  0
ENDBLK
  5
30F
330
308
100
AcDbEntity
  8
0
100
AcDbBlockEnd
  0
ENDSEC
  0
SECTION
  2
ENTITIES
  0
INSERT
  5
4F
330
1F
100
AcDbEntity
  8
0
100
AcDbBlockReference
  2
A4
 10
0.0
 20
0.0
 30
0.0
  0
LINE
  5
A7
330
1F
100
AcDbEntity
  8
0
  6
Continuous
 62
     7
100
AcDbLine
 10
-48.41208724563501
 20
102.2029253591591
 30
0.0
 11
-54.61208724563505
 21
102.2029253591591
 31
0.0
  0
LINE
  5
A8
330
1F
100
AcDbEntity
  8
0
  6
Continuous
 62
     7
100
AcDbLine
 10
-54.61208724563505
 20
102.2029253591591
 30
0.0
 11
-56.41208724563501
 21
100.4029253591592
 31
0.0
  0
LINE
  5
A9
330
1F
100
AcDbEntity
  8
0
  6
Continuous
 62
     2
100
AcDbLine
 10
-50.91213914426095
 20
226.7632820071177
 30
0.0
 11
-50.91213914426095
 21
227.802422600601
 31
0.0
  0
LINE
  5
AA
330
1F
100
AcDbEntity
  8
0
  6
Continuous
 62
     2
100
AcDbLine
 10
-50.91213914426095
 20
227.802422600601
 30
0.0
 11
-51.42549219617797
 21
226.913269032461
 31
0.0
  0
LINE
  5
AB
330
1F
100
AcDbEntity
  8
0
  6
Continuous
 62
     2
100
AcDbLine
 10
-51.59868229509135
 20
226.913269032461
 30
0.0
 11
-52.11203534700837
 21
227.802422600601
 31
0.0
  0
LINE
  5
AC
330
1F
100
AcDbEntity
  8
0
  6
Continuous
 62
     2
100
AcDbLine
 10
-52.11203534700837
 20
227.802422600601
 30
0.0
 11
-52.11203534700837
 21
226.7632820071177
 31
0.0
  0
LINE
  5
AD
330
1F
100
AcDbEntity
  8
0
  6
Continuous
 62
     2
100
AcDbLine
 10
-56.56151160928903
 20
226.8498930734155
 30
0.0
 11
-51.51208724563486
 21
229.7630225139854
 31
0.0
  0
LINE
  5
AE
330
1F
100
AcDbEntity
  8
0
  6
Continuous
 62
     2
100
AcDbLine
 10
-51.51208724563486
 20
229.7630225139854
 30
0.0
 11
-46.46266288198018
 21
226.8498930734155
 31
0.0
  0
LINE
  5
AF
330
1F
100
AcDbEntity
  8
0
  6
Continuous
 62
     2
100
AcDbLine
 10
-46.46266288198018
 20
226.6766709408199
 30
0.0
 11
-51.51208724563503
 21
223.76354150025
 31
0.0
  0
LINE
  5
B0
330
1F
100
AcDbEntity
  8
0
  6
Continuous
 62
     2
100
AcDbLine
 10
-51.51208724563503
 20
223.76354150025
 30
0.0
 11
-56.56151160928903
 21
226.6766709408199
 31
0.0
  0
LINE
  5
B1
330
1F
100
AcDbEntity
  8
0
  6
Continuous
 62
     2
100
AcDbLine
 10
-52.51200074792405
 20
226.7632820071177
 30
0.0
 11
-52.51200074792405
 21
228.7018446985981
 31
0.0
  0
LINE
  5
B2
330
1F
100
AcDbEntity
  8
0
  6
Continuous
 62
     2
100
AcDbLine
 10
-52.21536619817903
 20
228.7813276866495
 30
0.0
 11
-51.51208724563486
 21
227.5632128089491
 31
0.0
  0
LINE
  5
B3
330
1F
100
AcDbEntity
  8
0
  6
Continuous
 62
     2
100
AcDbLine
 10
-52.51200074792405
 20
226.7632820071177
 30
0.0
 11
-52.51200074792405
 21
225.7719188087625
 31
0.0
  0
LINE
  5
B4
330
1F
100
AcDbEntity
  8
0
  6
Continuous
 62
     2
100
AcDbLine
 10
-52.11203534700837
 20
225.7719188087625
 30
0.0
 11
-52.11203534700837
 21
226.7632820071177
 31
0.0
  0
LINE
  5
B5
330
1F
100
AcDbEntity
  8
0
  6
Continuous
 62
     2
100
AcDbLine
 10
-50.91213914426095
 20
226.7632820071177
 30
0.0
 11
-50.91213914426095
 21
224.8484090959299
 31
0.0
  0
LINE
  5
B6
330
1F
100
AcDbEntity
  8
0
  6
Continuous
 62
     2
100
AcDbLine
 10
-50.51217374334516
 20
224.8484090959299
 30
0.0
 11
-50.51217374334516
 21
228.7018446985981
 31
0.0
  0
LINE
  5
B7
330
1F
100
AcDbEntity
  8
0
  6
Continuous
 62
     2
100
AcDbLine
 10
-50.80880829309064
 20
228.7813276866495
 30
0.0
 11
-51.51208724563486
 21
227.5632128089491
 31
0.0
  0
LINE
  5
B8
330
1F
100
AcDbEntity
  8
0
  6
Continuous
 62
     2
100
AcDbLine
 10
-53.31193154975563
 20
225.4254104287767
 30
0.0
 11
-53.31193154975563
 21
228.2166563787872
 31
0.0
  0
LINE
  5
B9
330
1F
100
AcDbEntity
  8
0
  6
Continuous
 62
     2
100
AcDbLine
 10
-52.91196614883967
 20
228.2166563787872
 30
0.0
 11
-52.91196614883984
 21
225.4254104287767
 31
0.0
  0
LINE
  5
BA
330
1F
100
AcDbEntity
  8
0
  6
Continuous
 62
     2
100
AcDbLine
 10
-52.91196614883984
 20
225.4254104287767
 30
0.0
 11
-51.61213410036413
 21
224.675507323887
 31
0.0
  0
LINE
  5
BB
330
1F
100
AcDbEntity
  8
0
  6
Continuous
 62
     2
100
AcDbLine
 10
-51.81200579182098
 20
224.3290630586956
 30
0.0
 11
-53.11183784029663
 21
225.0789661635853
 31
0.0
  0
LINE
  5
BC
330
1F
100
AcDbEntity
  8
0
  6
Continuous
 62
     2
100
AcDbLine
 10
-53.71189695067147
 20
227.7551578392691
 30
0.0
 11
-53.71189695067147
 21
225.8869089682947
 31
0.0
  0
LINE
  5
BD
330
1F
100
AcDbEntity
  8
0
  6
Continuous
 62
     2
100
AcDbLine
 10
-53.71189695067147
 20
225.8869089682947
 30
0.0
 11
-53.71189695067147
 21
225.7714061749663
 31
0.0
  0
LINE
  5
BE
330
1F
100
AcDbEntity
  8
0
  6
Continuous
 62
     2
100
AcDbLine
 10
-54.11186235158726
 20
225.7714061749663
 30
0.0
 11
-54.11186235158704
 21
227.7551578392691
 31
0.0
  0
LINE
  5
BF
330
1F
100
AcDbEntity
  8
0
  6
Continuous
 62
     2
100
AcDbLine
 10
-49.81228979624353
 20
228.389878511383
 30
0.0
 11
-49.01235899441195
 21
227.9283799718647
 31
0.0
  0
LINE
  5
C0
330
1F
100
AcDbEntity
  8
0
  6
Continuous
 62
     2
100
AcDbLine
 10
-49.21223068586875
 20
227.5819357066735
 30
0.0
 11
-49.71224294151443
 21
227.8704043156996
 31
0.0
  0
LINE
  5
C1
330
1F
100
AcDbEntity
  8
0
  6
Continuous
 62
     2
100
AcDbLine
 10
-49.71224294151443
 20
227.8704043156996
 30
0.0
 11
-49.71224294151443
 21
226.9632647075754
 31
0.0
  0
LINE
  5
C2
330
1F
100
AcDbEntity
  8
0
  6
Continuous
 62
     2
100
AcDbLine
 10
-49.71224294151443
 20
226.9632647075754
 30
0.0
 11
-49.11229484014035
 21
226.9632647075754
 31
0.0
  0
LINE
  5
C3
330
1F
100
AcDbEntity
  8
0
  6
Continuous
 62
     2
100
AcDbLine
 10
-49.11229484014035
 20
226.5632993066598
 30
0.0
 11
-49.71224294151443
 21
226.5632993066598
 31
0.0
  0
LINE
  5
C4
330
1F
100
AcDbEntity
  8
0
  6
Continuous
 62
     2
100
AcDbLine
 10
-49.71224294151443
 20
226.5632993066598
 30
0.0
 11
-49.71224294151443
 21
225.6561596985358
 31
0.0
  0
LINE
  5
C5
330
1F
100
AcDbEntity
  8
0
  6
Continuous
 62
     2
100
AcDbLine
 10
-49.71224294151443
 20
225.6561596985358
 30
0.0
 11
-49.21223068586875
 21
225.9446283075618
 31
0.0
  0
LINE
  5
C6
330
1F
100
AcDbEntity
  8
0
  6
Continuous
 62
     2
100
AcDbLine
 10
-49.01235899441195
 20
225.5981840423704
 30
0.0
 11
-49.81228979624353
 21
225.1366855028524
 31
0.0
  0
LINE
  5
C7
330
1F
100
AcDbEntity
  8
0
  6
Continuous
 62
     2
100
AcDbLine
 10
-50.11220834242982
 20
225.309907635448
 30
0.0
 11
-50.11220834242982
 21
228.2166563787872
 31
0.0
  0
LINE
  5
C8
330
1F
100
AcDbEntity
  8
1
  6
DOT_CENTER
 62
     2
100
AcDbLine
 10
-51.51208724563503
 20
99.70292535915914
 30
0.0
 11
-51.51208724563503
 21
92.5029253591591
 31
0.0
  0
LINE
  5
C9
330
1F
100
AcDbEntity
  8
1
  6
DOT_CENTER
 62
     2
100
AcDbLine
 10
-55.11208724563505
 20
96.10292535915912
 30
0.0
 11
-47.91208724563501
 21
96.10292535915912
 31
0.0
  0
LINE
  5
CA
330
1F
100
AcDbEntity
  8
1
  6
DOT_CENTER
 62
     2
100
AcDbLine
 10
-51.51208724563503
 20
129.7029253591591
 30
0.0
 11
-51.51208724563503
 21
122.5029253591592
 31
0.0
  0
LINE
  5
CB
330
1F
100
AcDbEntity
  8
1
  6
DOT_CENTER
 62
     2
100
AcDbLine
 10
-55.11208724563505
 20
126.1029253591591
 30
0.0
 11
-47.91208724563501
 21
126.1029253591591
 31
0.0
  0
LINE
  5
CC
330
1F
100
AcDbEntity
  8
1
  6
DOT_CENTER
 62
     2
100
AcDbLine
 10
-146.3620872456351
 20
213.4728717612659
 30
0.0
 11
-146.3620872456351
 21
201.9728717612659
 31
0.0
  0
LINE
  5
CD
330
1F
100
AcDbEntity
  8
1
  6
DOT_CENTER
 62
     2
100
AcDbLine
 10
-116.3620872456351
 20
213.4728717612659
 30
0.0
 11
-116.3620872456351
 21
201.9728717612659
 31
0.0
  0
LINE
  5
CE
330
1F
100
AcDbEntity
  8
1
  6
DOT_CENTER
 62
     2
100
AcDbLine
 10
-51.51208724563503
 20
213.4728717612659
 30
0.0
 11
-51.51208724563503
 21
201.9728717612659
 31
0.0
  0
LINE
  5
CF
330
1F
100
AcDbEntity
  8
1
  6
Continuous
 62
     7
100
AcDbLine
 10
-121.855091818563
 20
127.6594747273784
 30
0.0
 11
-121.855091818563
 21
105.6594747273784
 31
0.0
  0
LINE
  5
D0
330
1F
100
AcDbEntity
  8
1
  6
Continuous
 62
     7
100
AcDbLine
 10
-121.855091818563
 20
105.6594747273784
 30
0.0
 11
-143.855091818563
 21
105.6594747273784
 31
0.0
  0
LINE
  5
D1
330
1F
100
AcDbEntity
  8
1
  6
Continuous
 62
     7
100
AcDbLine
 10
-143.855091818563
 20
105.6594747273784
 30
0.0
 11
-143.855091818563
 21
127.6594747273783
 31
0.0
  0
LINE
  5
D2
330
1F
100
AcDbEntity
  8
1
  6
Continuous
 62
     7
100
AcDbLine
 10
-121.855091818563
 20
127.6594747273784
 30
0.0
 11
-143.855091818563
 21
127.6594747273783
 31
0.0
  0
LINE
  5
D3
330
1F
100
AcDbEntity
  8
1
  6
DOT_CENTER
 62
     2
100
AcDbLine
 10
-132.855091818563
 20
135.2594747273783
 30
0.0
 11
-132.855091818563
 21
128.0594747273784
 31
0.0
  0
LINE
  5
D4
330
1F
100
AcDbEntity
  8
1
  6
DOT_CENTER
 62
     2
100
AcDbLine
 10
-136.4550918185631
 20
131.6594747273783
 30
0.0
 11
-129.255091818563
 21
131.6594747273784
 31
0.0
  0
LINE
  5
D5
330
1F
100
AcDbEntity
  8
1
  6
DOT_CENTER
 62
     2
100
AcDbLine
 10
-136.4550918185631
 20
101.6594747273784
 30
0.0
 11
-129.255091818563
 21
101.6594747273784
 31
0.0
  0
LINE
  5
D6
330
1F
100
AcDbEntity
  8
1
  6
DOT_CENTER
 62
     2
100
AcDbLine
 10
-132.855091818563
 20
105.2594747273784
 30
0.0
 11
-132.855091818563
 21
98.05947472737826
 31
0.0
  0
LINE
  5
D7
330
1F
100
AcDbEntity
  8
1
  6
Continuous
 62
     7
100
AcDbLine
 10
-36.41208724563501
 20
248.7292584791146
 30
0.0
 11
-36.41208724563501
 21
238.4633913001389
 31
0.0
  0
LINE
  5
D8
330
1F
100
AcDbEntity
  8
1
  6
Continuous
 62
     7
100
AcDbLine
 10
-66.61208724563505
 20
238.4633913001389
 30
0.0
 11
-66.61208724563505
 21
248.7292584791146
 31
0.0
  0
LINE
  5
D9
330
1F
100
AcDbEntity
  8
1
  6
Continuous
 62
     7
100
AcDbLine
 10
-38.01208724563503
 20
231.5728717612664
 30
0.0
 11
-38.01208724563503
 21
218.2930463213541
 31
0.0
  0
LINE
  5
DA
330
1F
100
AcDbEntity
  8
1
  6
Continuous
 62
     7
100
AcDbLine
 10
-65.01208724563503
 20
218.2930463213541
 30
0.0
 11
-65.01208724563503
 21
231.5728717612664
 31
0.0
  0
LINE
  5
DB
102
{ACAD_REACTORS
330
312
102
}
330
1F
100
AcDbEntity
  8
1
  6
Continuous
 62
     7
100
AcDbLine
 10
-152.3620872456351
 20
206.5728717612658
 30
0.0
 11
-152.3620872456351
 21
210.2728717612659
 31
0.0
  0
LINE
  5
DC
102
{ACAD_REACTORS
330
312
102
}
330
1F
100
AcDbEntity
  8
1
  6
Continuous
 62
     7
100
AcDbLine
 10
-152.3620872456351
 20
210.2728717612659
 30
0.0
 11
-110.3620872456351
 21
210.2728717612659
 31
0.0
  0
LINE
  5
DD
102
{ACAD_REACTORS
330
312
102
}
330
1F
100
AcDbEntity
  8
1
  6
Continuous
 62
     7
100
AcDbLine
 10
-110.3620872456351
 20
210.2728717612659
 30
0.0
 11
-110.3620872456351
 21
206.5728717612658
 31
0.0
  0
LINE
  5
DE
102
{ACAD_REACTORS
330
312
102
}
330
1F
100
AcDbEntity
  8
1
  6
Continuous
 62
     7
100
AcDbLine
 10
-110.3620872456351
 20
206.5728717612658
 30
0.0
 11
-152.3620872456351
 21
206.5728717612658
 31
0.0
  0
LINE
  5
DF
330
1F
100
AcDbEntity
  8
1
  6
Continuous
 62
     7
100
AcDbLine
 10
-38.01208724563503
 20
99.11962831009552
 30
0.0
 11
-38.01208724563503
 21
101.2283707452188
 31
0.0
  0
LINE
  5
E0
330
1F
100
AcDbEntity
  8
1
  6
Continuous
 62
     7
100
AcDbLine
 10
-40.81112535131183
 20
95.10292535915912
 30
0.0
 11
-37.91208724563501
 21
95.10292535915912
 31
0.0
  0
LINE
  5
E1
102
{ACAD_REACTORS
330
313
102
}
330
1F
100
AcDbEntity
  8
1
  6
Continuous
 62
     7
100
AcDbLine
 10
-39.26208724563503
 20
95.99726292645661
 30
0.0
 11
-40.81112535131183
 21
95.10292535915912
 31
0.0
  0
LINE
  5
E2
102
{ACAD_REACTORS
330
313
102
}
330
1F
100
AcDbEntity
  8
1
  6
Continuous
 62
     7
100
AcDbLine
 10
-38.01208724563503
 20
99.11962831009552
 30
0.0
 11
-38.01208724563503
 21
98.37955099326504
 31
0.0
  0
LINE
  5
E3
102
{ACAD_REACTORS
330
313
102
}
330
1F
100
AcDbEntity
  8
1
  6
Continuous
 62
     7
100
AcDbLine
 10
-43.24413805320387
 20
95.10292535915912
 30
0.0
 11
-40.01208724563503
 21
96.96895076294354
 31
0.0
  0
LINE
  5
E4
102
{ACAD_REACTORS
330
313
102
}
330
1F
100
AcDbEntity
  8
1
  6
Continuous
 62
     7
100
AcDbLine
 10
-43.24413805320387
 20
95.10292535915912
 30
0.0
 11
-40.81112535131183
 21
95.10292535915912
 31
0.0
  0
LINE
  5
E5
102
{ACAD_REACTORS
330
314
102
}
330
1F
100
AcDbEntity
  8
1
  6
Continuous
 62
     7
100
AcDbLine
 10
-62.21304913995823
 20
95.10292535915912
 30
0.0
 11
-59.78003643806619
 21
95.10292535915912
 31
0.0
  0
LINE
  5
E6
102
{ACAD_REACTORS
330
314
102
}
330
1F
100
AcDbEntity
  8
1
  6
Continuous
 62
     7
100
AcDbLine
 10
-63.01208724563503
 20
96.96895076294354
 30
0.0
 11
-59.78003643806619
 21
95.10292535915912
 31
0.0
  0
LINE
  5
E7
102
{ACAD_REACTORS
330
314
102
}
330
1F
100
AcDbEntity
  8
1
  6
Continuous
 62
     7
100
AcDbLine
 10
-65.01208724563503
 20
98.37955099326504
 30
0.0
 11
-65.01208724563503
 21
99.11962831009552
 31
0.0
  0
LINE
  5
E8
330
1F
100
AcDbEntity
  8
0
  6
Continuous
 62
     7
100
AcDbLine
 10
-59.78124418981156
 20
95.10362265495448
 30
0.0
 11
-43.24413805320387
 21
95.10362265495448
 31
0.0
  0
LINE
  5
E9
330
1F
100
AcDbEntity
  8
0
  6
Continuous
 62
     7
100
AcDbLine
 10
-62.21304913995823
 20
95.10292535915912
 30
0.0
 11
-65.11208724563505
 21
95.10292535915912
 31
0.0
  0
LINE
  5
EA
330
1F
100
AcDbEntity
  8
0
  6
Continuous
 62
     7
100
AcDbLine
 10
-65.01208724563503
 20
99.11962831009552
 30
0.0
 11
-65.01208724563503
 21
101.2283707452188
 31
0.0
  0
LINE
  5
EB
102
{ACAD_REACTORS
330
315
102
}
330
1F
100
AcDbEntity
  8
1
  6
Continuous
 62
     7
100
AcDbLine
 10
-36.41208724563501
 20
118.266663479613
 30
0.0
 11
-36.41208724563501
 21
119.7666634796102
 31
0.0
  0
LINE
  5
EC
102
{ACAD_REACTORS
330
315
102
}
330
1F
100
AcDbEntity
  8
1
  6
Continuous
 62
     7
100
AcDbLine
 10
-36.26208724563503
 20
118.266663479613
 30
0.0
 11
-36.41208724563501
 21
118.266663479613
 31
0.0
  0
LINE
  5
ED
102
{ACAD_REACTORS
330
315
102
}
330
1F
100
AcDbEntity
  8
1
  6
Continuous
 62
     7
100
AcDbLine
 10
-65.51208724563503
 20
119.7666634796101
 30
0.0
 11
-66.61208724563505
 21
119.7666634796102
 31
0.0
  0
LINE
  5
EE
330
1F
100
AcDbEntity
  8
0
  6
Continuous
 62
     7
100
AcDbLine
 10
-36.26208724563503
 20
118.266663479613
 30
0.0
 11
-35.21208724563508
 21
118.266663479613
 31
0.0
  0
LINE
  5
EF
102
{ACAD_REACTORS
330
315
102
}
330
1F
100
AcDbEntity
  8
0
  6
Continuous
 62
     7
100
AcDbLine
 10
-37.51208724563503
 20
119.7666634796102
 30
0.0
 11
-36.41208724563501
 21
119.7666634796102
 31
0.0
  0
LINE
  5
F0
102
{ACAD_REACTORS
330
315
102
}
330
1F
100
AcDbEntity
  8
1
  6
Continuous
 62
     7
100
AcDbLine
 10
-66.76208724563514
 20
118.266663479613
 30
0.0
 11
-66.76208724563514
 21
121.0124353691552
 31
0.0
  0
LINE
  5
F1
102
{ACAD_REACTORS
330
315
102
}
330
1F
100
AcDbEntity
  8
0
  6
Continuous
 62
     7
100
AcDbLine
 10
-66.61208724563505
 20
118.266663479613
 30
0.0
 11
-66.61208724563505
 21
119.7666634796102
 31
0.0
  0
LINE
  5
F2
102
{ACAD_REACTORS
330
315
102
}
330
1F
100
AcDbEntity
  8
1
  6
Continuous
 62
     7
100
AcDbLine
 10
-66.76208724563514
 20
118.266663479613
 30
0.0
 11
-66.61208724563505
 21
118.266663479613
 31
0.0
  0
LINE
  5
F3
330
1F
100
AcDbEntity
  8
1
  6
Continuous
 62
     7
100
AcDbLine
 10
-67.81208724563498
 20
118.266663479613
 30
0.0
 11
-66.76208724563514
 21
118.266663479613
 31
0.0
  0
LINE
  5
F4
102
{ACAD_REACTORS
330
311
102
}
330
1F
100
AcDbEntity
  8
1
  6
Continuous
 62
     7
100
AcDbLine
 10
-66.76208724563514
 20
206.5728717612658
 30
0.0
 11
-66.76208724563514
 21
210.2728717612659
 31
0.0
  0
LINE
  5
F5
102
{ACAD_REACTORS
330
311
102
}
330
1F
100
AcDbEntity
  8
1
  6
Continuous
 62
     7
100
AcDbLine
 10
-36.26208724563503
 20
206.5728717612658
 30
0.0
 11
-66.76208724563514
 21
206.5728717612658
 31
0.0
  0
LINE
  5
F6
102
{ACAD_REACTORS
330
311
102
}
330
1F
100
AcDbEntity
  8
1
  6
Continuous
 62
     7
100
AcDbLine
 10
-36.26208724563503
 20
210.2728717612659
 30
0.0
 11
-36.26208724563503
 21
206.5728717612658
 31
0.0
  0
LINE
  5
F7
102
{ACAD_REACTORS
330
311
102
}
330
1F
100
AcDbEntity
  8
1
  6
Continuous
 62
     7
100
AcDbLine
 10
-66.76208724563514
 20
210.2728717612659
 30
0.0
 11
-36.26208724563503
 21
210.2728717612659
 31
0.0
  0
LINE
  5
F8
102
{ACAD_REACTORS
330
314
102
}
330
1F
100
AcDbEntity
  8
1
  6
Continuous
 62
     7
100
AcDbLine
 10
-62.21304913995823
 20
95.10292535915912
 30
0.0
 11
-63.76208724563503
 21
95.99726292645661
 31
0.0
  0
LINE
  5
F9
102
{ACAD_REACTORS
330
315
102
}
330
1F
100
AcDbEntity
  8
1
  6
Continuous
 62
     7
100
AcDbLine
 10
-63.76208724563503
 20
126.2085877918619
 30
0.0
 11
-54.51208724563503
 21
131.5490777818659
 31
0.0
  0
LINE
  5
FA
102
{ACAD_REACTORS
330
315
102
}
330
1F
100
AcDbEntity
  8
1
  6
Continuous
 62
     7
100
AcDbLine
 10
-36.26208724563503
 20
121.0124353691552
 30
0.0
 11
-36.26208724563503
 21
118.266663479613
 31
0.0
  0
LINE
  5
FB
102
{ACAD_REACTORS
330
315
102
}
330
1F
100
AcDbEntity
  8
1
  6
Continuous
 62
     7
100
AcDbLine
 10
-48.51208724563503
 20
131.5490777818659
 30
0.0
 11
-39.26208724563503
 21
126.2085877918619
 31
0.0
  0
LINE
  5
FC
330
1F
100
AcDbEntity
  8
0
  6
Continuous
 62
     7
100
AcDbLine
 10
-59.4219963904618
 20
92.53734089552333
 30
0.0
 11
-43.60217810080826
 21
92.53734089552333
 31
0.0
  0
LINE
  5
FD
330
1F
100
AcDbEntity
  8
0
  6
Continuous
 62
     7
100
AcDbLine
 10
-66.61208724563505
 20
98.2720739125734
 30
0.0
 11
-66.61208724563505
 21
98.90354550947401
 31
0.0
  0
LINE
  5
FE
330
1F
100
AcDbEntity
  8
0
  6
Continuous
 62
     7
100
AcDbLine
 10
-66.61208724563505
 20
98.2720739125734
 30
0.0
 11
-66.61208724563505
 21
96.60292535915912
 31
0.0
  0
LINE
  5
FF
330
1F
100
AcDbEntity
  8
0
  6
Continuous
 62
     7
100
AcDbLine
 10
-65.73961768536299
 20
231.5440348668339
 30
0.0
 11
-66.61208724563505
 21
230.6715653065617
 31
0.0
  0
LINE
  5
100
330
1F
100
AcDbEntity
  8
0
  6
Continuous
 62
     7
100
AcDbLine
 10
-65.73961768536299
 20
231.5440348668339
 30
0.0
 11
-64.45404246599003
 21
232.8296100862067
 31
0.0
  0
LINE
  5
101
330
1F
100
AcDbEntity
  8
0
  6
Continuous
 62
     7
100
AcDbLine
 10
-65.01208724563503
 20
231.5728717612664
 30
0.0
 11
-65.71078079093036
 21
231.5728717612664
 31
0.0
  0
LINE
  5
102
330
1F
100
AcDbEntity
  8
0
  6
Continuous
 62
     7
100
AcDbLine
 10
-67.81208724563498
 20
228.88393491767
 30
0.0
 11
-67.81208724563498
 21
228.1150770767549
 31
0.0
  0
LINE
  5
103
330
1F
100
AcDbEntity
  8
0
  6
Continuous
 62
     7
100
AcDbLine
 10
-66.21208724563508
 20
227.90071772281
 30
0.0
 11
-66.21208724563508
 21
231.0715653065617
 31
0.0
  0
LINE
  5
104
330
1F
100
AcDbEntity
  8
0
  6
Continuous
 62
     7
100
AcDbLine
 10
-66.61208724563505
 20
230.6715653065617
 30
0.0
 11
-66.61208724563505
 21
228.1150770767549
 31
0.0
  0
LINE
  5
105
330
1F
100
AcDbEntity
  8
0
  6
Continuous
 62
     7
100
AcDbLine
 10
-42.99362630971734
 20
238.4633913001397
 30
0.0
 11
-43.00550804753834
 21
238.5307759838297
 31
0.0
  0
LINE
  5
106
330
1F
100
AcDbEntity
  8
0
  6
Continuous
 62
     7
100
AcDbLine
 10
-43.70224837288595
 20
242.4821867239678
 30
0.0
 11
-43.70607430548967
 21
242.4821867239678
 31
0.0
  0
LINE
  5
107
330
1F
100
AcDbEntity
  8
0
  6
Continuous
 62
     7
100
AcDbLine
 10
-43.70075856211474
 20
242.4737375872267
 30
0.0
 11
-43.70224837288595
 21
242.4821867239678
 31
0.0
  0
LINE
  5
108
330
1F
100
AcDbEntity
  8
0
  6
Continuous
 62
     7
100
AcDbLine
 10
-43.54792861052601
 20
241.6069958612887
 30
0.0
 11
-43.70075856211474
 21
242.4737375872267
 31
0.0
  0
LINE
  5
109
330
1F
100
AcDbEntity
  8
0
  6
Continuous
 62
     7
100
AcDbLine
 10
-43.00550804753834
 20
238.5307759838297
 30
0.0
 11
-43.54792861052601
 21
241.6069958612887
 31
0.0
  0
LINE
  5
10A
330
1F
100
AcDbEntity
  8
0
  6
Continuous
 62
     7
100
AcDbLine
 10
-59.32341592915532
 20
242.4737375872267
 30
0.0
 11
-59.32192611838423
 21
242.4821867239678
 31
0.0
  0
LINE
  5
10B
330
1F
100
AcDbEntity
  8
0
  6
Continuous
 62
     7
100
AcDbLine
 10
-59.11788500427133
 20
243.0250620719997
 30
0.0
 11
-59.04478503287101
 21
243.0250620719997
 31
0.0
  0
LINE
  5
10C
330
1F
100
AcDbEntity
  8
0
  6
Continuous
 62
     7
100
AcDbLine
 10
-59.3181001857804
 20
242.4821867239678
 30
0.0
 11
-59.32192611838423
 21
242.4821867239678
 31
0.0
  0
LINE
  5
10D
330
1F
100
AcDbEntity
  8
0
  6
Continuous
 62
     7
100
AcDbLine
 10
-58.60163291106926
 20
243.5679374200318
 30
0.0
 11
-58.41768467102975
 21
243.5679374200318
 31
0.0
  0
LINE
  5
10E
330
1F
100
AcDbEntity
  8
0
  6
Continuous
 62
     7
100
AcDbLine
 10
-60.03054818155283
 20
238.4633913001397
 30
0.0
 11
-60.01866644373172
 21
238.5307759838297
 31
0.0
  0
LINE
  5
10F
330
1F
100
AcDbEntity
  8
0
  6
Continuous
 62
     7
100
AcDbLine
 10
-59.47624588074405
 20
241.6069958612887
 30
0.0
 11
-59.32341592915532
 21
242.4737375872267
 31
0.0
  0
LINE
  5
110
330
1F
100
AcDbEntity
  8
0
  6
Continuous
 62
     7
100
AcDbLine
 10
-60.01866644373172
 20
238.5307759838297
 30
0.0
 11
-59.47624588074405
 21
241.6069958612887
 31
0.0
  0
LINE
  5
111
330
1F
100
AcDbEntity
  8
0
  6
Continuous
 62
     7
100
AcDbLine
 10
-43.00550804753834
 20
238.5307759838297
 30
0.0
 11
-60.01866644373172
 21
238.5307759838297
 31
0.0
  0
LINE
  5
112
330
1F
100
AcDbEntity
  8
0
  6
Continuous
 62
     7
100
AcDbLine
 10
-46.55625552144136
 20
243.3201169582588
 30
0.0
 11
-56.4679189698287
 21
243.3201169582588
 31
0.0
  0
LINE
  5
113
330
1F
100
AcDbEntity
  8
0
  6
Continuous
 62
     7
100
AcDbLine
 10
-43.97938945839894
 20
243.0250620719997
 30
0.0
 11
-43.90628948699873
 21
243.0250620719997
 31
0.0
  0
LINE
  5
114
330
1F
100
AcDbEntity
  8
0
  6
Continuous
 62
     7
100
AcDbLine
 10
-56.30582980533654
 20
244.2393702900008
 30
0.0
 11
-46.71834468593363
 21
244.2393702900008
 31
0.0
  0
LINE
  5
115
330
1F
100
AcDbEntity
  8
0
  6
Continuous
 62
     7
100
AcDbLine
 10
-44.60648982024043
 20
243.5679374200318
 30
0.0
 11
-44.4225415802008
 21
243.5679374200318
 31
0.0
  0
LINE
  5
116
330
1F
100
AcDbEntity
  8
0
  6
Continuous
 62
     7
100
AcDbLine
 10
-37.28455680590719
 20
231.5440348668339
 30
0.0
 11
-38.57013202528003
 21
232.8296100862067
 31
0.0
  0
LINE
  5
117
330
1F
100
AcDbEntity
  8
0
  6
Continuous
 62
     7
100
AcDbLine
 10
-37.28455680590719
 20
231.5440348668339
 30
0.0
 11
-36.41208724563501
 21
230.6715653065617
 31
0.0
  0
LINE
  5
118
330
1F
100
AcDbEntity
  8
0
  6
Continuous
 62
     7
100
AcDbLine
 10
-35.21208724563508
 20
228.88393491767
 30
0.0
 11
-35.21208724563508
 21
228.1150770767549
 31
0.0
  0
LINE
  5
119
330
1F
100
AcDbEntity
  8
0
  6
Continuous
 62
     7
100
AcDbLine
 10
-36.41208724563501
 20
230.6715653065617
 30
0.0
 11
-36.41208724563501
 21
228.1150770767549
 31
0.0
  0
LINE
  5
11A
330
1F
100
AcDbEntity
  8
0
  6
Continuous
 62
     7
100
AcDbLine
 10
-36.81208724563498
 20
218.2930463213541
 30
0.0
 11
-36.81208724563498
 21
226.5150770767548
 31
0.0
  0
LINE
  5
11B
330
1F
100
AcDbEntity
  8
0
  6
Continuous
 62
     7
100
AcDbLine
 10
-38.01208724563503
 20
218.2930463213541
 30
0.0
 11
-36.81208724563498
 21
218.2930463213541
 31
0.0
  0
LINE
  5
11C
330
1F
100
AcDbEntity
  8
0
  6
Continuous
 62
     7
100
AcDbLine
 10
-38.80391323921299
 20
233.0633913001397
 30
0.0
 11
-38.57013202528003
 21
232.8296100862067
 31
0.0
  0
LINE
  5
11D
330
1F
100
AcDbEntity
  8
0
  6
Continuous
 62
     7
100
AcDbLine
 10
-35.21208724563508
 20
228.88393491767
 30
0.0
 11
-35.21208724563508
 21
248.7292584791146
 31
0.0
  0
LINE
  5
11E
330
1F
100
AcDbEntity
  8
0
  6
Continuous
 62
     7
100
AcDbLine
 10
-38.01208724563503
 20
231.5728717612664
 30
0.0
 11
-37.3133937003397
 21
231.5728717612664
 31
0.0
  0
LINE
  5
11F
330
1F
100
AcDbEntity
  8
0
  6
Continuous
 62
     7
100
AcDbLine
 10
-42.99362630971734
 20
238.4633913001397
 30
0.0
 11
-35.42295287810839
 21
238.4633913001389
 31
0.0
  0
LINE
  5
120
330
1F
100
AcDbEntity
  8
0
  6
Continuous
 62
     7
100
AcDbLine
 10
-36.41208724563501
 20
248.7292584791146
 30
0.0
 11
-35.21208724563508
 21
248.7292584791146
 31
0.0
  0
LINE
  5
121
330
1F
100
AcDbEntity
  8
0
  6
Continuous
 62
     7
100
AcDbLine
 10
-65.11208724563505
 20
233.0633913001397
 30
0.0
 11
-37.91208724563501
 21
233.0633913001397
 31
0.0
  0
LINE
  5
122
330
1F
100
AcDbEntity
  8
0
  6
Continuous
 62
     7
100
AcDbLine
 10
-38.01208724563503
 20
226.9404405319338
 30
0.0
 11
-37.94590354895354
 21
226.9404405319338
 31
0.0
  0
LINE
  5
123
330
1F
100
AcDbEntity
  8
0
  6
Continuous
 62
     7
100
AcDbLine
 10
-64.22026125205718
 20
233.0633913001397
 30
0.0
 11
-64.45404246599003
 21
232.8296100862067
 31
0.0
  0
LINE
  5
124
330
1F
100
AcDbEntity
  8
0
  6
Continuous
 62
     7
100
AcDbLine
 10
-66.21208724563508
 20
218.2930463213541
 30
0.0
 11
-66.21208724563508
 21
226.5150770767548
 31
0.0
  0
LINE
  5
125
330
1F
100
AcDbEntity
  8
0
  6
Continuous
 62
     7
100
AcDbLine
 10
-67.81208724563498
 20
248.7292584791146
 30
0.0
 11
-67.81208724563498
 21
228.88393491767
 31
0.0
  0
LINE
  5
126
330
1F
100
AcDbEntity
  8
0
  6
Continuous
 62
     7
100
AcDbLine
 10
-65.01208724563503
 20
218.2930463213541
 30
0.0
 11
-66.21208724563508
 21
218.2930463213541
 31
0.0
  0
LINE
  5
127
330
1F
100
AcDbEntity
  8
0
  6
Continuous
 62
     7
100
AcDbLine
 10
-60.03054818155283
 20
238.4633913001397
 30
0.0
 11
-67.60122161316178
 21
238.4633913001389
 31
0.0
  0
LINE
  5
128
330
1F
100
AcDbEntity
  8
0
  6
Continuous
 62
     7
100
AcDbLine
 10
-66.61208724563505
 20
248.7292584791146
 30
0.0
 11
-67.81208724563498
 21
248.7292584791146
 31
0.0
  0
LINE
  5
129
330
1F
100
AcDbEntity
  8
0
  6
Continuous
 62
     7
100
AcDbLine
 10
-38.21208724563508
 20
248.5728717612658
 30
0.0
 11
-38.21208724563508
 21
238.4633913001397
 31
0.0
  0
LINE
  5
12A
330
1F
100
AcDbEntity
  8
0
  6
Continuous
 62
     7
100
AcDbLine
 10
-38.21208724563508
 20
248.5728717612658
 30
0.0
 11
-36.41208724563501
 21
248.5728717612658
 31
0.0
  0
LINE
  5
12B
330
1F
100
AcDbEntity
  8
0
  6
Continuous
 62
     7
100
AcDbLine
 10
-39.36208724563505
 20
239.5728717612658
 30
0.0
 11
-38.21208724563508
 21
239.5728717612658
 31
0.0
  0
LINE
  5
12C
330
1F
100
AcDbEntity
  8
0
  6
Continuous
 62
     7
100
AcDbLine
 10
-39.36208724563505
 20
246.5728717612658
 30
0.0
 11
-38.21208724563508
 21
246.5728717612658
 31
0.0
  0
LINE
  5
12D
330
1F
100
AcDbEntity
  8
0
  6
Continuous
 62
     7
100
AcDbLine
 10
-39.36208724563505
 20
246.5728717612658
 30
0.0
 11
-39.36208724563505
 21
239.5728717612658
 31
0.0
  0
LINE
  5
12E
330
1F
100
AcDbEntity
  8
0
  6
Continuous
 62
     7
100
AcDbLine
 10
-64.81208724563498
 20
238.4633913001397
 30
0.0
 11
-64.81208724563498
 21
248.5728717612658
 31
0.0
  0
LINE
  5
12F
330
1F
100
AcDbEntity
  8
0
  6
Continuous
 62
     7
100
AcDbLine
 10
-64.81208724563498
 20
248.5728717612658
 30
0.0
 11
-66.61208724563505
 21
248.5728717612658
 31
0.0
  0
LINE
  5
130
330
1F
100
AcDbEntity
  8
0
  6
Continuous
 62
     7
100
AcDbLine
 10
-63.66208724563501
 20
239.5728717612658
 30
0.0
 11
-64.81208724563498
 21
239.5728717612658
 31
0.0
  0
LINE
  5
131
330
1F
100
AcDbEntity
  8
0
  6
Continuous
 62
     7
100
AcDbLine
 10
-63.66208724563501
 20
246.5728717612658
 30
0.0
 11
-64.81208724563498
 21
246.5728717612658
 31
0.0
  0
LINE
  5
132
330
1F
100
AcDbEntity
  8
0
  6
Continuous
 62
     7
100
AcDbLine
 10
-63.66208724563501
 20
239.5728717612658
 30
0.0
 11
-63.66208724563501
 21
246.5728717612658
 31
0.0
  0
LINE
  5
133
330
1F
100
AcDbEntity
  8
0
  6
Continuous
 62
     7
100
AcDbLine
 10
-36.81208724563498
 20
227.90071772281
 30
0.0
 11
-36.81208724563498
 21
231.0715653065617
 31
0.0
  0
LINE
  5
134
330
1F
100
AcDbEntity
  8
0
  6
Continuous
 62
     7
100
AcDbLine
 10
-149.9276717092708
 20
241.9146600092497
 30
0.0
 11
-149.952323075957
 21
242.1964264198118
 31
0.0
  0
LINE
  5
135
330
1F
100
AcDbEntity
  8
0
  6
Continuous
 62
     7
100
AcDbLine
 10
-149.6459052987099
 20
241.9393113759368
 30
0.0
 11
-149.9276717092708
 21
241.9146600092497
 31
0.0
  0
LINE
  5
136
330
1F
100
AcDbEntity
  8
0
  6
Continuous
 62
     7
100
AcDbLine
 10
-149.3053494296102
 20
241.6535510717797
 30
0.0
 11
-149.6459052987099
 21
241.9393113759368
 31
0.0
  0
LINE
  5
137
330
1F
100
AcDbEntity
  8
0
  6
Continuous
 62
     7
100
AcDbLine
 10
-149.2806980629231
 20
241.3717846612188
 30
0.0
 11
-149.3053494296102
 21
241.6535510717797
 31
0.0
  0
LINE
  5
138
330
1F
100
AcDbEntity
  8
0
  6
Continuous
 62
     7
100
AcDbLine
 10
-148.5620872456348
 20
232.8296100862067
 30
0.0
 11
-148.562087245635
 21
238.4633913001397
 31
0.0
  0
LINE
  5
139
330
1F
100
AcDbEntity
  8
0
  6
Continuous
 62
     7
100
AcDbLine
 10
-148.5051668946381
 20
240.9821182018098
 30
0.0
 11
-148.9989316523621
 21
241.3964360279048
 31
0.0
  0
LINE
  5
13A
330
1F
100
AcDbEntity
  8
0
  6
Continuous
 62
     7
100
AcDbLine
 10
-132.8620872456351
 20
235.4104945918257
 30
0.0
 11
-134.3620872456351
 21
235.4104945918257
 31
0.0
  0
LINE
  5
13B
330
1F
100
AcDbEntity
  8
0
  6
Continuous
 62
     7
100
AcDbLine
 10
-132.8620872456351
 20
235.4104945918257
 30
0.0
 11
-132.8620872456351
 21
237.5728717612658
 31
0.0
  0
LINE
  5
13C
330
1F
100
AcDbEntity
  8
0
  6
Continuous
 62
     7
100
AcDbLine
 10
-135.3620872456351
 20
236.4104945918269
 30
0.0
 11
-135.3620872456351
 21
239.2798970140687
 31
0.0
  0
LINE
  5
13D
330
1F
100
AcDbEntity
  8
0
  6
Continuous
 62
     7
100
AcDbLine
 10
-150.5746453556191
 20
242.4575353572818
 30
0.0
 11
-150.3894530199243
 21
242.4737375872267
 31
0.0
  0
LINE
  5
13E
330
1F
100
AcDbEntity
  8
0
  6
Continuous
 62
     7
100
AcDbLine
 10
-131.3620872456351
 20
239.0728717612658
 30
0.0
 11
-128.1983491251841
 21
239.0728717612658
 31
0.0
  0
LINE
  5
13F
330
1F
100
AcDbEntity
  8
0
  6
Continuous
 62
     7
100
AcDbLine
 10
-148.562087245635
 20
238.5307759838297
 30
0.0
 11
-148.562087245635
 21
238.4633913001397
 31
0.0
  0
LINE
  5
140
330
1F
100
AcDbEntity
  8
0
  6
Continuous
 62
     7
100
AcDbLine
 10
-146.9081322257372
 20
238.4633913001397
 30
0.0
 11
-147.3620872456351
 21
238.4633913001397
 31
0.0
  0
LINE
  5
141
330
1F
100
AcDbEntity
  8
0
  6
Continuous
 62
     7
100
AcDbLine
 10
-147.3620872456351
 20
238.4633913001397
 30
0.0
 11
-148.562087245635
 21
238.4633913001397
 31
0.0
  0
LINE
  5
142
330
1F
100
AcDbEntity
  8
0
  6
Continuous
 62
     7
100
AcDbLine
 10
-148.9989316523621
 20
241.3964360279048
 30
0.0
 11
-149.2806980629231
 21
241.3717846612188
 31
0.0
  0
LINE
  5
143
330
1F
100
AcDbEntity
  8
0
  6
Continuous
 62
     7
100
AcDbLine
 10
-150.2928789450581
 20
242.4821867239678
 30
0.0
 11
-150.3894530199243
 21
242.4737375872267
 31
0.0
  0
LINE
  5
144
330
1F
100
AcDbEntity
  8
0
  6
Continuous
 62
     7
100
AcDbLine
 10
-149.952323075957
 20
242.1964264198118
 30
0.0
 11
-150.2928789450581
 21
242.4821867239678
 31
0.0
  0
LINE
  5
145
330
1F
100
AcDbEntity
  8
0
  6
Continuous
 62
     7
100
AcDbLine
 10
-150.5992967223052
 20
242.7393017678437
 30
0.0
 11
-150.5746453556191
 21
242.4575353572818
 31
0.0
  0
LINE
  5
146
330
1F
100
AcDbEntity
  8
0
  6
Continuous
 62
     7
100
AcDbLine
 10
-150.9398525914049
 20
243.0250620719997
 30
0.0
 11
-150.5992967223052
 21
242.7393017678437
 31
0.0
  0
LINE
  5
147
330
1F
100
AcDbEntity
  8
0
  6
Continuous
 62
     7
100
AcDbLine
 10
-149.2765120262621
 20
240.0628648700668
 30
0.0
 11
-153.1583539043478
 21
243.3201169582588
 31
0.0
  0
LINE
  5
148
330
1F
100
AcDbEntity
  8
0
  6
Continuous
 62
     7
100
AcDbLine
 10
-151.246270368653
 20
243.2821771158748
 30
0.0
 11
-151.2216190019659
 21
243.0004107053137
 31
0.0
  0
LINE
  5
149
330
1F
100
AcDbEntity
  8
0
  6
Continuous
 62
     7
100
AcDbLine
 10
-151.2216190019659
 20
243.0004107053137
 30
0.0
 11
-150.9398525914049
 21
243.0250620719997
 31
0.0
  0
LINE
  5
14A
330
1F
100
AcDbEntity
  8
0
  6
Continuous
 62
     7
100
AcDbLine
 10
-152.3870087727238
 20
244.2393702900008
 30
0.0
 11
-151.8932440150012
 21
243.8250524639068
 31
0.0
  0
LINE
  5
14B
330
1F
100
AcDbEntity
  8
0
  6
Continuous
 62
     7
100
AcDbLine
 10
-151.8932440150012
 20
243.8250524639068
 30
0.0
 11
-151.8685926483141
 21
243.5432860533448
 31
0.0
  0
LINE
  5
14C
330
1F
100
AcDbEntity
  8
0
  6
Continuous
 62
     7
100
AcDbLine
 10
-151.8685926483141
 20
243.5432860533448
 30
0.0
 11
-151.5868262377531
 21
243.5679374200318
 31
0.0
  0
LINE
  5
14D
330
1F
100
AcDbEntity
  8
0
  6
Continuous
 62
     7
100
AcDbLine
 10
-151.5868262377531
 20
243.5679374200318
 30
0.0
 11
-151.246270368653
 21
243.2821771158748
 31
0.0
  0
LINE
  5
14E
330
1F
100
AcDbEntity
  8
0
  6
Continuous
 62
     7
100
AcDbLine
 10
-152.3870087727238
 20
244.2393702900008
 30
0.0
 11
-153.1583539043478
 21
243.3201169582588
 31
0.0
  0
LINE
  5
14F
330
1F
100
AcDbEntity
  8
0
  6
Continuous
 62
     7
100
AcDbLine
 10
-135.0003913342131
 20
240.4270498867707
 30
0.0
 11
-132.7118291272501
 21
243.6954554409508
 31
0.0
  0
LINE
  5
150
330
1F
100
AcDbEntity
  8
0
  6
Continuous
 62
     7
100
AcDbLine
 10
-131.3138097208149
 20
222.8233897585378
 30
0.0
 11
-131.3620872456351
 21
222.8223536447127
 31
0.0
  0
LINE
  5
151
330
1F
100
AcDbEntity
  8
0
  6
Continuous
 62
     7
100
AcDbLine
 10
-144.6099988963798
 20
227.3917541291997
 30
0.0
 11
-148.0941761318727
 21
231.5440348668339
 31
0.0
  0
LINE
  5
152
330
1F
100
AcDbEntity
  8
0
  6
Continuous
 62
     7
100
AcDbLine
 10
-144.1815722009634
 20
226.7150770767549
 30
0.0
 11
-144.1817275021822
 21
226.7150770767549
 31
0.0
  0
LINE
  5
153
330
1F
100
AcDbEntity
  8
0
  6
Continuous
 62
     7
100
AcDbLine
 10
-63.66208724563501
 20
110.7666634796102
 30
0.0
 11
-64.81208724563498
 21
110.7666634796102
 31
0.0
  0
LINE
  5
154
330
1F
100
AcDbEntity
  8
0
  6
Continuous
 62
     7
100
AcDbLine
 10
-63.66208724563501
 20
110.7666634796102
 30
0.0
 11
-63.66208724563501
 21
117.7666634796102
 31
0.0
  0
LINE
  5
155
330
1F
100
AcDbEntity
  8
0
  6
Continuous
 62
     7
100
AcDbLine
 10
-63.66208724563501
 20
117.7666634796102
 30
0.0
 11
-64.81208724563498
 21
117.7666634796102
 31
0.0
  0
LINE
  5
156
330
1F
100
AcDbEntity
  8
0
  6
Continuous
 62
     7
100
AcDbLine
 10
-66.61208724563505
 20
111.8666634796101
 30
0.0
 11
-66.61208724563505
 21
116.66666347961
 31
0.0
  0
LINE
  5
157
330
1F
100
AcDbEntity
  8
0
  6
Continuous
 62
     7
100
AcDbLine
 10
-60.03054818155283
 20
93.90292535915941
 30
0.0
 11
-60.01866644373172
 21
93.90292535915839
 31
0.0
  0
LINE
  5
158
330
1F
100
AcDbEntity
  8
0
  6
Continuous
 62
     7
100
AcDbLine
 10
-60.03054818155283
 20
95.10292535915912
 30
0.0
 11
-60.03054818155283
 21
93.90292535915941
 31
0.0
  0
LINE
  5
159
330
1F
100
AcDbEntity
  8
0
  6
Continuous
 62
     7
100
AcDbLine
 10
-42.99362630971734
 20
93.90292535915941
 30
0.0
 11
-43.00550804753834
 21
93.90292535915839
 31
0.0
  0
LINE
  5
15A
330
1F
100
AcDbEntity
  8
0
  6
Continuous
 62
     7
100
AcDbLine
 10
-43.50645452978893
 20
93.1843145418712
 30
0.0
 11
-43.51080123084705
 21
93.46608095243207
 31
0.0
  0
LINE
  5
15B
330
1F
100
AcDbEntity
  8
0
  6
Continuous
 62
     7
100
AcDbLine
 10
-59.51771996148113
 20
93.1843145418712
 30
0.0
 11
-43.50645452978893
 21
93.1843145418712
 31
0.0
  0
LINE
  5
15C
330
1F
100
AcDbEntity
  8
0
  6
Continuous
 62
     7
100
AcDbLine
 10
-59.51771996148113
 20
93.1843145418712
 30
0.0
 11
-59.51337326042301
 21
93.46608095243207
 31
0.0
  0
LINE
  5
15D
330
1F
100
AcDbEntity
  8
0
  6
Continuous
 62
     7
100
AcDbLine
 10
-59.4219963904618
 20
92.53734089552333
 30
0.0
 11
-59.41764968940356
 21
92.8191073060843
 31
0.0
  0
LINE
  5
15E
330
1F
100
AcDbEntity
  8
0
  6
Continuous
 62
     7
100
AcDbLine
 10
-59.46803694104199
 20
93.15966317518402
 30
0.0
 11
-59.51771996148113
 21
93.1843145418712
 31
0.0
  0
LINE
  5
15F
330
1F
100
AcDbEntity
  8
0
  6
Continuous
 62
     7
100
AcDbLine
 10
-59.41764968940356
 20
92.8191073060843
 30
0.0
 11
-59.46803694104199
 21
93.15966317518402
 31
0.0
  0
LINE
  5
160
330
1F
100
AcDbEntity
  8
0
  6
Continuous
 62
     7
100
AcDbLine
 10
-43.60217810080826
 20
92.53734089552333
 30
0.0
 11
-43.6065248018665
 21
92.8191073060843
 31
0.0
  0
LINE
  5
161
330
1F
100
AcDbEntity
  8
0
  6
Continuous
 62
     7
100
AcDbLine
 10
-59.32341592915532
 20
92.07555958486986
 30
0.0
 11
-59.32192611838423
 21
92.1721336597362
 31
0.0
  0
LINE
  5
162
330
1F
100
AcDbEntity
  8
0
  6
Continuous
 62
     7
100
AcDbLine
 10
-59.32192611838423
 20
92.1721336597362
 30
0.0
 11
-59.37231337002231
 21
92.51268952883729
 31
0.0
  0
LINE
  5
163
330
1F
100
AcDbEntity
  8
0
  6
Continuous
 62
     7
100
AcDbLine
 10
-43.9683776114814
 20
91.24339360282838
 30
0.0
 11
-59.05579687978866
 21
91.24339360282838
 31
0.0
  0
LINE
  5
164
330
1F
100
AcDbEntity
  8
0
  6
Continuous
 62
     7
100
AcDbLine
 10
-59.32329538739396
 20
91.89036724917511
 30
0.0
 11
-43.70087910387611
 21
91.89036724917511
 31
0.0
  0
LINE
  5
165
330
1F
100
AcDbEntity
  8
0
  6
Continuous
 62
     7
100
AcDbLine
 10
-43.2756566550255
 20
93.18850057853203
 30
0.0
 11
-43.54792861052601
 21
91.34827692230849
 31
0.0
  0
LINE
  5
166
330
1F
100
AcDbEntity
  8
0
  6
Continuous
 62
     7
100
AcDbLine
 10
-43.70075856211474
 20
92.07555958486986
 30
0.0
 11
-43.70224837288595
 21
92.1721336597362
 31
0.0
  0
LINE
  5
167
330
1F
100
AcDbEntity
  8
0
  6
Continuous
 62
     7
100
AcDbLine
 10
-59.74851783624456
 20
93.18850057853203
 30
0.0
 11
-59.47624588074405
 21
91.34827692230849
 31
0.0
  0
LINE
  5
168
330
1F
100
AcDbEntity
  8
0
  6
Continuous
 62
     7
100
AcDbLine
 10
-44.58573325431598
 20
90.59641995648005
 30
0.0
 11
-58.43844123695408
 21
90.59641995648005
 31
0.0
  0
LINE
  5
169
330
1F
100
AcDbEntity
  8
0
  6
Continuous
 62
     7
100
AcDbLine
 10
-59.37231337002231
 20
92.51268952883729
 30
0.0
 11
-59.4219963904618
 21
92.53734089552333
 31
0.0
  0
LINE
  5
16A
330
1F
100
AcDbEntity
  8
0
  6
Continuous
 62
     7
100
AcDbLine
 10
-38.01208724563503
 20
108.7666634796102
 30
0.0
 11
-38.01208724563503
 21
104.8769967628113
 31
0.0
  0
LINE
  5
16B
330
1F
100
AcDbEntity
  8
0
  6
Continuous
 62
     7
100
AcDbLine
 10
-38.01208724563503
 20
104.8769967628113
 30
0.0
 11
-38.01208724563503
 21
101.2601959091004
 31
0.0
  0
LINE
  5
16C
330
1F
100
AcDbEntity
  8
0
  6
Continuous
 62
     7
100
AcDbLine
 10
-38.01208724563503
 20
101.2601959091004
 30
0.0
 11
-38.01208724563503
 21
101.2283707452188
 31
0.0
  0
LINE
  5
16D
330
1F
100
AcDbEntity
  8
0
  6
Continuous
 62
     7
100
AcDbLine
 10
-36.41208724563501
 20
117.0261339324446
 30
0.0
 11
-36.41208724563501
 21
118.266663479613
 31
0.0
  0
LINE
  5
16E
330
1F
100
AcDbEntity
  8
0
  6
Continuous
 62
     7
100
AcDbLine
 10
-36.41208724563501
 20
100.3927082372174
 30
0.0
 11
-36.41208724563501
 21
105.9020833844262
 31
0.0
  0
LINE
  5
16F
330
1F
100
AcDbEntity
  8
0
  6
Continuous
 62
     7
100
AcDbLine
 10
-36.41208724563501
 20
105.9020833844262
 30
0.0
 11
-36.41208724563501
 21
108.7666634796102
 31
0.0
  0
LINE
  5
170
330
1F
100
AcDbEntity
  8
0
  6
Continuous
 62
     7
100
AcDbLine
 10
-36.41208724563501
 20
108.7666634796102
 30
0.0
 11
-36.41208724563501
 21
109.7531834775442
 31
0.0
  0
LINE
  5
171
330
1F
100
AcDbEntity
  8
0
  6
Continuous
 62
     7
100
AcDbLine
 10
-36.41208724563501
 20
98.90354550947401
 30
0.0
 11
-36.41208724563501
 21
100.3927082372174
 31
0.0
  0
LINE
  5
172
330
1F
100
AcDbEntity
  8
0
  6
Continuous
 62
     7
100
AcDbLine
 10
-36.41208724563501
 20
110.0244554111099
 30
0.0
 11
-36.41208724563501
 21
112.7666634796102
 31
0.0
  0
LINE
  5
173
330
1F
100
AcDbEntity
  8
0
  6
Continuous
 62
     7
100
AcDbLine
 10
-36.41208724563501
 20
112.7666634796102
 30
0.0
 11
-36.41208724563501
 21
117.0261339324446
 31
0.0
  0
LINE
  5
174
330
1F
100
AcDbEntity
  8
0
  6
Continuous
 62
     7
100
AcDbLine
 10
-36.41208724563501
 20
110.0244554111099
 30
0.0
 11
-36.41208724563501
 21
109.7531834775442
 31
0.0
  0
LINE
  5
175
330
1F
100
AcDbEntity
  8
0
  6
Continuous
 62
     7
100
AcDbLine
 10
-36.41208724563501
 20
98.2720739125734
 30
0.0
 11
-36.41208724563501
 21
98.90354550947401
 31
0.0
  0
LINE
  5
176
330
1F
100
AcDbEntity
  8
0
  6
Continuous
 62
     7
100
AcDbLine
 10
-36.81208724563498
 20
104.8769967628113
 30
0.0
 11
-36.81208724563498
 21
108.7666634796102
 31
0.0
  0
LINE
  5
177
330
1F
100
AcDbEntity
  8
0
  6
Continuous
 62
     7
100
AcDbLine
 10
-35.21208724563508
 20
117.0261339324453
 30
0.0
 11
-35.21208724563508
 21
118.266663479613
 31
0.0
  0
LINE
  5
178
330
1F
100
AcDbEntity
  8
0
  6
Continuous
 62
     7
100
AcDbLine
 10
-35.21208724563508
 20
112.5166634796102
 30
0.0
 11
-35.21208724563508
 21
117.0261339324453
 31
0.0
  0
LINE
  5
179
330
1F
100
AcDbEntity
  8
0
  6
Continuous
 62
     7
100
AcDbLine
 10
-35.21208724563508
 20
105.9020833844262
 30
0.0
 11
-35.21208724563508
 21
112.5166634796102
 31
0.0
  0
LINE
  5
17A
330
1F
100
AcDbEntity
  8
0
  6
Continuous
 62
     7
100
AcDbLine
 10
-35.21208724563508
 20
98.90354550947401
 30
0.0
 11
-35.21208724563508
 21
105.9020833844262
 31
0.0
  0
LINE
  5
17B
330
1F
100
AcDbEntity
  8
0
  6
Continuous
 62
     7
100
AcDbLine
 10
-35.21208724563508
 20
98.2720739125734
 30
0.0
 11
-35.21208724563508
 21
98.90354550947401
 31
0.0
  0
LINE
  5
17C
330
1F
100
AcDbEntity
  8
0
  6
Continuous
 62
     7
100
AcDbLine
 10
-36.81208724563498
 20
104.8769967628113
 30
0.0
 11
-36.81208724563498
 21
101.2601959091004
 31
0.0
  0
LINE
  5
17D
330
1F
100
AcDbEntity
  8
0
  6
Continuous
 62
     7
100
AcDbLine
 10
-36.81208724563498
 20
101.2601959091004
 30
0.0
 11
-36.81208724563498
 21
101.2283707452188
 31
0.0
  0
LINE
  5
17E
330
1F
100
AcDbEntity
  8
0
  6
Continuous
 62
     7
100
AcDbLine
 10
-35.21208724563508
 20
98.2720739125734
 30
0.0
 11
-35.21208724563508
 21
96.60292535915934
 31
0.0
  0
LINE
  5
17F
330
1F
100
AcDbEntity
  8
0
  6
Continuous
 62
     7
100
AcDbLine
 10
-36.41208724563501
 20
98.2720739125734
 30
0.0
 11
-36.41208724563501
 21
96.60292535915912
 31
0.0
  0
LINE
  5
180
330
1F
100
AcDbEntity
  8
0
  6
Continuous
 62
     7
100
AcDbLine
 10
-37.91208724563501
 20
93.90292535915941
 30
0.0
 11
-42.99362630971734
 21
93.90292535915941
 31
0.0
  0
LINE
  5
181
330
1F
100
AcDbEntity
  8
0
  6
Continuous
 62
     7
100
AcDbLine
 10
-59.51337326042301
 20
93.46608095243207
 30
0.0
 11
-59.58642867175217
 21
93.95984571015603
 31
0.0
  0
LINE
  5
182
330
1F
100
AcDbEntity
  8
0
  6
Continuous
 62
     7
100
AcDbLine
 10
-56.30582980533654
 20
90.0780038320705
 30
0.0
 11
-46.71834468593363
 21
90.0780038320705
 31
0.0
  0
LINE
  5
183
330
1F
100
AcDbEntity
  8
0
  6
Continuous
 62
     7
100
AcDbLine
 10
-46.55625552144136
 20
89.30665870044649
 30
0.0
 11
-56.4679189698287
 21
89.30665870044649
 31
0.0
  0
LINE
  5
184
330
1F
100
AcDbEntity
  8
0
  6
Continuous
 62
     7
100
AcDbLine
 10
-66.61208724563505
 20
109.7531834775442
 30
0.0
 11
-66.61208724563505
 21
108.7666634796102
 31
0.0
  0
LINE
  5
185
330
1F
100
AcDbEntity
  8
0
  6
Continuous
 62
     7
100
AcDbLine
 10
-66.61208724563505
 20
110.0244554111099
 30
0.0
 11
-66.61208724563505
 21
109.7531834775442
 31
0.0
  0
LINE
  5
186
330
1F
100
AcDbEntity
  8
0
  6
Continuous
 62
     7
100
AcDbLine
 10
-66.61208724563505
 20
110.0244554111099
 30
0.0
 11
-66.61208724563505
 21
112.7666634796102
 31
0.0
  0
LINE
  5
187
330
1F
100
AcDbEntity
  8
0
  6
Continuous
 62
     7
100
AcDbLine
 10
-43.55613755022819
 20
93.15966317518402
 30
0.0
 11
-43.50645452978893
 21
93.1843145418712
 31
0.0
  0
LINE
  5
188
330
1F
100
AcDbEntity
  8
0
  6
Continuous
 62
     7
100
AcDbLine
 10
-43.51080123084705
 20
93.46608095243207
 30
0.0
 11
-43.43774581951789
 21
93.95984571015603
 31
0.0
  0
LINE
  5
189
330
1F
100
AcDbEntity
  8
0
  6
Continuous
 62
     7
100
AcDbLine
 10
-43.65186112124775
 20
92.51268952883729
 30
0.0
 11
-43.60217810080826
 21
92.53734089552333
 31
0.0
  0
LINE
  5
18A
330
1F
100
AcDbEntity
  8
0
  6
Continuous
 62
     7
100
AcDbLine
 10
-43.6065248018665
 20
92.8191073060843
 30
0.0
 11
-43.55613755022819
 21
93.15966317518402
 31
0.0
  0
LINE
  5
18B
330
1F
100
AcDbEntity
  8
0
  6
Continuous
 62
     7
100
AcDbLine
 10
-43.70224837288595
 20
92.1721336597362
 30
0.0
 11
-43.65186112124775
 21
92.51268952883729
 31
0.0
  0
LINE
  5
18C
330
1F
100
AcDbEntity
  8
0
  6
Continuous
 62
     7
100
AcDbLine
 10
-65.01208724563503
 20
104.8769967628113
 30
0.0
 11
-65.01208724563503
 21
108.7666634796101
 31
0.0
  0
LINE
  5
18D
330
1F
100
AcDbEntity
  8
0
  6
Continuous
 62
     7
100
AcDbLine
 10
-65.01208724563503
 20
104.8769967628113
 30
0.0
 11
-65.01208724563503
 21
101.2601959091004
 31
0.0
  0
LINE
  5
18E
330
1F
100
AcDbEntity
  8
0
  6
Continuous
 62
     7
100
AcDbLine
 10
-65.01208724563503
 20
101.2601959091004
 30
0.0
 11
-65.01208724563503
 21
101.2283707452188
 31
0.0
  0
LINE
  5
18F
330
1F
100
AcDbEntity
  8
0
  6
Continuous
 62
     7
100
AcDbLine
 10
-66.61208724563505
 20
117.0261339324446
 30
0.0
 11
-66.61208724563505
 21
118.266663479613
 31
0.0
  0
LINE
  5
190
330
1F
100
AcDbEntity
  8
0
  6
Continuous
 62
     7
100
AcDbLine
 10
-66.61208724563505
 20
112.7666634796102
 30
0.0
 11
-66.61208724563505
 21
117.0261339324446
 31
0.0
  0
LINE
  5
191
330
1F
100
AcDbEntity
  8
0
  6
Continuous
 62
     7
100
AcDbLine
 10
-66.61208724563505
 20
100.3927082372153
 30
0.0
 11
-66.61208724563505
 21
105.9020833844262
 31
0.0
  0
LINE
  5
192
330
1F
100
AcDbEntity
  8
0
  6
Continuous
 62
     7
100
AcDbLine
 10
-66.61208724563505
 20
98.90354550947401
 30
0.0
 11
-66.61208724563505
 21
100.3927082372153
 31
0.0
  0
LINE
  5
193
330
1F
100
AcDbEntity
  8
0
  6
Continuous
 62
     7
100
AcDbLine
 10
-66.61208724563505
 20
105.9020833844262
 30
0.0
 11
-66.61208724563505
 21
108.7666634796102
 31
0.0
  0
LINE
  5
194
330
1F
100
AcDbEntity
  8
0
  6
Continuous
 62
     7
100
AcDbLine
 10
-66.21208724563508
 20
101.2601959091004
 30
0.0
 11
-66.21208724563508
 21
101.2283707452188
 31
0.0
  0
LINE
  5
195
330
1F
100
AcDbEntity
  8
0
  6
Continuous
 62
     7
100
AcDbLine
 10
-66.21208724563508
 20
104.8769967628113
 30
0.0
 11
-66.21208724563508
 21
108.7666634796101
 31
0.0
  0
LINE
  5
196
330
1F
100
AcDbEntity
  8
0
  6
Continuous
 62
     7
100
AcDbLine
 10
-66.21208724563508
 20
104.8769967628113
 30
0.0
 11
-66.21208724563508
 21
101.2601959091004
 31
0.0
  0
LINE
  5
197
330
1F
100
AcDbEntity
  8
0
  6
Continuous
 62
     7
100
AcDbLine
 10
-65.11208724563505
 20
93.90292535915941
 30
0.0
 11
-60.03054818155283
 21
93.90292535915941
 31
0.0
  0
LINE
  5
198
330
1F
100
AcDbEntity
  8
0
  6
Continuous
 62
     7
100
AcDbLine
 10
-67.81208724563498
 20
98.2720739125734
 30
0.0
 11
-67.81208724563498
 21
96.60292535915934
 31
0.0
  0
LINE
  5
199
330
1F
100
AcDbEntity
  8
0
  6
Continuous
 62
     7
100
AcDbLine
 10
-67.81208724563498
 20
98.2720739125734
 30
0.0
 11
-67.81208724563498
 21
98.90354550947401
 31
0.0
  0
LINE
  5
19A
330
1F
100
AcDbEntity
  8
0
  6
Continuous
 62
     7
100
AcDbLine
 10
-67.81208724563498
 20
98.90354550947401
 30
0.0
 11
-67.81208724563498
 21
105.9020833844262
 31
0.0
  0
LINE
  5
19B
330
1F
100
AcDbEntity
  8
0
  6
Continuous
 62
     7
100
AcDbLine
 10
-67.81208724563498
 20
112.5166634796102
 30
0.0
 11
-67.81208724563498
 21
117.0261339324453
 31
0.0
  0
LINE
  5
19C
330
1F
100
AcDbEntity
  8
0
  6
Continuous
 62
     7
100
AcDbLine
 10
-67.81208724563498
 20
105.9020833844262
 30
0.0
 11
-67.81208724563498
 21
112.5166634796102
 31
0.0
  0
LINE
  5
19D
330
1F
100
AcDbEntity
  8
0
  6
Continuous
 62
     7
100
AcDbLine
 10
-67.81208724563498
 20
117.0261339324453
 30
0.0
 11
-67.81208724563498
 21
118.266663479613
 31
0.0
  0
LINE
  5
19E
330
1F
100
AcDbEntity
  8
0
  6
Continuous
 62
     7
100
AcDbLine
 10
-64.81208724563498
 20
108.7666634796102
 30
0.0
 11
-66.61208724563505
 21
108.7666634796102
 31
0.0
  0
LINE
  5
19F
330
1F
100
AcDbEntity
  8
0
  6
Continuous
 62
     7
100
AcDbLine
 10
-66.61208724563505
 20
108.7666634796102
 30
0.0
 11
-66.61208724563505
 21
112.7666634796102
 31
0.0
  0
LINE
  5
1A0
330
1F
100
AcDbEntity
  8
0
  6
Continuous
 62
     7
100
AcDbLine
 10
-64.81208724563498
 20
108.7666634796102
 30
0.0
 11
-64.81208724563498
 21
119.7666634796102
 31
0.0
  0
LINE
  5
1A1
330
1F
100
AcDbEntity
  8
0
  6
Continuous
 62
     7
100
AcDbLine
 10
-64.81208724563498
 20
119.7666634796102
 30
0.0
 11
-65.51208724563503
 21
119.7666634796101
 31
0.0
  0
LINE
  5
1A2
330
1F
100
AcDbEntity
  8
0
  6
Continuous
 62
     7
100
AcDbLine
 10
-66.61208724563505
 20
112.7666634796102
 30
0.0
 11
-66.61208724563505
 21
118.266663479613
 31
0.0
  0
LINE
  5
1A3
330
1F
100
AcDbEntity
  8
0
  6
Continuous
 62
     7
100
AcDbLine
 10
-39.36208724563505
 20
117.7666634796102
 30
0.0
 11
-38.36208724563505
 21
117.7666634796102
 31
0.0
  0
LINE
  5
1A4
330
1F
100
AcDbEntity
  8
0
  6
Continuous
 62
     7
100
AcDbLine
 10
-36.41208724563501
 20
111.8666634796101
 30
0.0
 11
-36.41208724563501
 21
116.66666347961
 31
0.0
  0
LINE
  5
1A5
330
1F
100
AcDbEntity
  8
0
  6
Continuous
 62
     7
100
AcDbLine
 10
-39.36208724563505
 20
110.7666634796102
 30
0.0
 11
-38.21208724563508
 21
110.7666634796102
 31
0.0
  0
LINE
  5
1A6
330
1F
100
AcDbEntity
  8
0
  6
Continuous
 62
     7
100
AcDbLine
 10
-39.36208724563505
 20
117.7666634796102
 30
0.0
 11
-39.36208724563505
 21
110.7666634796102
 31
0.0
  0
LINE
  5
1A7
330
1F
100
AcDbEntity
  8
0
  6
Continuous
 62
     7
100
AcDbLine
 10
-38.21208724563508
 20
119.7666634796102
 30
0.0
 11
-38.21208724563508
 21
108.7666634796102
 31
0.0
  0
LINE
  5
1A8
330
1F
100
AcDbEntity
  8
0
  6
Continuous
 62
     7
100
AcDbLine
 10
-36.41208724563501
 20
112.7666634796102
 30
0.0
 11
-36.41208724563501
 21
108.7666634796102
 31
0.0
  0
LINE
  5
1A9
330
1F
100
AcDbEntity
  8
0
  6
Continuous
 62
     7
100
AcDbLine
 10
-38.21208724563508
 20
119.7666634796102
 30
0.0
 11
-37.51208724563503
 21
119.7666634796102
 31
0.0
  0
LINE
  5
1AA
330
1F
100
AcDbEntity
  8
0
  6
Continuous
 62
     7
100
AcDbLine
 10
-38.21208724563508
 20
108.7666634796102
 30
0.0
 11
-36.41208724563501
 21
108.7666634796102
 31
0.0
  0
LINE
  5
1AB
330
1F
100
AcDbEntity
  8
0
  6
Continuous
 62
     7
100
AcDbLine
 10
-46.61208724563505
 20
100.4029253591592
 30
0.0
 11
-48.41208724563501
 21
102.2029253591591
 31
0.0
  0
LINE
  5
1AC
330
1F
100
AcDbEntity
  8
1
  6
Continuous
 62
     7
100
AcDbLine
 10
-51.05004932188024
 20
220.60059510997
 30
0.0
 11
-49.33627178748088
 21
222.3143726443693
 31
0.0
  0
LINE
  5
1AD
330
1F
100
AcDbEntity
  8
1
  6
Continuous
 62
     7
100
AcDbLine
 10
-50.69891444727057
 20
220.9517299845797
 30
0.0
 11
-50.1332290223213
 21
220.3860445596304
 31
0.0
  0
LINE
  5
1AE
330
1F
100
AcDbEntity
  8
1
  6
Continuous
 62
     7
100
AcDbLine
 10
-51.51208724563503
 20
220.4065081204622
 30
0.0
 11
-51.05004932188024
 21
220.60059510997
 31
0.0
  0
LINE
  5
1AF
330
1F
100
AcDbEntity
  8
1
  6
Continuous
 62
     7
100
AcDbLine
 10
-52.61488517921532
 20
221.2413551197957
 30
0.0
 11
-53.18057060416459
 21
220.6756696948465
 31
0.0
  0
LINE
  5
1B0
330
1F
100
AcDbEntity
  8
1
  6
Continuous
 62
     7
100
AcDbLine
 10
-52.61488517921532
 20
221.2413551197957
 30
0.0
 11
-51.97412516938982
 21
220.60059510997
 31
0.0
  0
LINE
  5
1B1
330
1F
100
AcDbEntity
  8
1
  6
Continuous
 62
     7
100
AcDbLine
 10
-51.97412516938982
 20
220.60059510997
 30
0.0
 11
-51.51208724563503
 21
220.4065081204622
 31
0.0
  0
LINE
  5
1B2
330
1F
100
AcDbEntity
  8
1
  6
Continuous
 62
     7
100
AcDbLine
 10
-50.48436389693097
 20
220.0349096850207
 30
0.0
 11
-50.67845088643878
 21
219.5728717612658
 31
0.0
  0
LINE
  5
1B3
330
1F
100
AcDbEntity
  8
1
  6
Continuous
 62
     7
100
AcDbLine
 10
-50.48436389693097
 20
220.0349096850207
 30
0.0
 11
-48.7705863625315
 21
221.7486872194201
 31
0.0
  0
LINE
  5
1B4
330
1F
100
AcDbEntity
  8
1
  6
Continuous
 62
     7
100
AcDbLine
 10
-50.40928931205519
 20
217.9043884027354
 30
0.0
 11
-49.84360388710593
 21
218.4700738276846
 31
0.0
  0
LINE
  5
1B5
330
1F
100
AcDbEntity
  8
1
  6
Continuous
 62
     7
100
AcDbLine
 10
-50.48436389693086
 20
219.110833837511
 30
0.0
 11
-49.84360388710593
 21
218.4700738276846
 31
0.0
  0
LINE
  5
1B6
330
1F
100
AcDbEntity
  8
1
  6
Continuous
 62
     7
100
AcDbLine
 10
-50.67845088643878
 20
219.5728717612658
 30
0.0
 11
-50.48436389693086
 21
219.110833837511
 31
0.0
  0
LINE
  5
1B7
330
1F
100
AcDbEntity
  8
1
  6
Continuous
 62
     7
100
AcDbLine
 10
-52.6081027564743
 20
218.4768562504267
 30
0.0
 11
-52.89094546894887
 21
218.7596989629014
 31
0.0
  0
LINE
  5
1B8
330
1F
100
AcDbEntity
  8
1
  6
Continuous
 62
     7
100
AcDbLine
 10
-52.5398105943392
 20
219.110833837511
 30
0.0
 11
-52.34572360483139
 21
219.5728717612658
 31
0.0
  0
LINE
  5
1B9
330
1F
100
AcDbEntity
  8
1
  6
Continuous
 62
     7
100
AcDbLine
 10
-52.5398105943392
 20
219.110833837511
 30
0.0
 11
-54.25358812873856
 21
217.3970563031117
 31
0.0
  0
LINE
  5
1BA
330
1F
100
AcDbEntity
  8
1
  6
Continuous
 62
     7
100
AcDbLine
 10
-52.5398105943392
 20
220.0349096850206
 30
0.0
 11
-53.18057060416459
 21
220.6756696948465
 31
0.0
  0
LINE
  5
1BB
330
1F
100
AcDbEntity
  8
1
  6
Continuous
 62
     7
100
AcDbLine
 10
-52.34572360483139
 20
219.5728717612658
 30
0.0
 11
-52.5398105943392
 21
220.0349096850206
 31
0.0
  0
LINE
  5
1BC
330
1F
100
AcDbEntity
  8
1
  6
Continuous
 62
     7
100
AcDbLine
 10
-52.32526004399961
 20
218.1940135379521
 30
0.0
 11
-52.74952411271158
 21
218.6182776066641
 31
0.0
  0
LINE
  5
1BD
330
1F
100
AcDbEntity
  8
1
  6
Continuous
 62
     7
100
AcDbLine
 10
-51.97412516939005
 20
218.5451484125616
 30
0.0
 11
-53.68790270378929
 21
216.8313708781624
 31
0.0
  0
LINE
  5
1BE
330
1F
100
AcDbEntity
  8
1
  6
Continuous
 62
     7
100
AcDbLine
 10
-51.51208724563514
 20
218.7392354020696
 30
0.0
 11
-51.97412516939005
 21
218.5451484125616
 31
0.0
  0
LINE
  5
1BF
330
1F
100
AcDbEntity
  8
1
  6
Continuous
 62
     7
100
AcDbLine
 10
-50.40928931205519
 20
217.9043884027354
 30
0.0
 11
-51.05004932188001
 21
218.5451484125616
 31
0.0
  0
LINE
  5
1C0
330
1F
100
AcDbEntity
  8
1
  6
Continuous
 62
     7
100
AcDbLine
 10
-51.05004932188001
 20
218.5451484125616
 30
0.0
 11
-51.51208724563514
 21
218.7392354020696
 31
0.0
  0
LINE
  5
1C1
330
1F
100
AcDbEntity
  8
0
  6
Continuous
 62
     7
100
AcDbLine
 10
-39.01208724563503
 20
211.0728717612658
 30
0.0
 11
-64.01208724563503
 21
211.0728717612658
 31
0.0
  0
LINE
  5
1C2
330
1F
100
AcDbEntity
  8
0
  6
Continuous
 62
     7
100
AcDbLine
 10
-67.61208724563505
 20
227.2228717612659
 30
0.0
 11
-67.61208724563505
 21
222.0728717612658
 31
0.0
  0
LINE
  5
1C3
330
1F
100
AcDbEntity
  8
0
  6
Continuous
 62
     7
100
AcDbLine
 10
-67.61208724563505
 20
222.0728717612658
 30
0.0
 11
-66.31208724563498
 21
222.0728717612658
 31
0.0
  0
LINE
  5
1C4
330
1F
100
AcDbEntity
  8
0
  6
Continuous
 62
     7
100
AcDbLine
 10
-66.31208724563498
 20
222.9806241659751
 30
0.0
 11
-66.31208724563498
 21
225.0728717612658
 31
0.0
  0
LINE
  5
1C5
330
1F
100
AcDbEntity
  8
0
  6
Continuous
 62
     7
100
AcDbLine
 10
-66.31208724563498
 20
222.922871761266
 30
0.0
 11
-66.31208724563498
 21
222.0728717612658
 31
0.0
  0
LINE
  5
1C6
330
1F
100
AcDbEntity
  8
0
  6
Continuous
 62
     7
100
AcDbLine
 10
-65.01208724563503
 20
222.5728717612658
 30
0.0
 11
-64.26208724563503
 21
222.5728717612658
 31
0.0
  0
LINE
  5
1C7
330
1F
100
AcDbEntity
  8
0
  6
Continuous
 62
     7
100
AcDbLine
 10
-39.51208724563503
 20
230.5728717612658
 30
0.0
 11
-63.51208724563503
 21
230.5728717612658
 31
0.0
  0
LINE
  5
1C8
330
1F
100
AcDbEntity
  8
0
  6
Continuous
 62
     7
100
AcDbLine
 10
-39.51208724563503
 20
230.5728717612658
 30
0.0
 11
-39.51208724563503
 21
211.5678717612659
 31
0.0
  0
LINE
  5
1C9
330
1F
100
AcDbEntity
  8
0
  6
Continuous
 62
     7
100
AcDbLine
 10
-38.76208724563503
 20
227.5728717612658
 30
0.0
 11
-39.51208724563503
 21
228.3228717612658
 31
0.0
  0
LINE
  5
1CA
330
1F
100
AcDbEntity
  8
0
  6
Continuous
 62
     7
100
AcDbLine
 10
-38.01208724563503
 20
227.5728717612658
 30
0.0
 11
-38.76208724563503
 21
227.5728717612658
 31
0.0
  0
LINE
  5
1CB
330
1F
100
AcDbEntity
  8
0
  6
Continuous
 62
     7
100
AcDbLine
 10
-38.76208724563503
 20
222.5728717612658
 30
0.0
 11
-39.51208724563503
 21
221.8228717612658
 31
0.0
  0
LINE
  5
1CC
330
1F
100
AcDbEntity
  8
0
  6
Continuous
 62
     7
100
AcDbLine
 10
-38.01208724563503
 20
222.5728717612658
 30
0.0
 11
-38.76208724563503
 21
222.5728717612658
 31
0.0
  0
LINE
  5
1CD
330
1F
100
AcDbEntity
  8
0
  6
Continuous
 62
     7
100
AcDbLine
 10
-36.71208724563508
 20
222.922871761266
 30
0.0
 11
-36.71208724563508
 21
222.0728717612658
 31
0.0
  0
LINE
  5
1CE
330
1F
100
AcDbEntity
  8
0
  6
Continuous
 62
     7
100
AcDbLine
 10
-36.71208724563508
 20
222.9806241659751
 30
0.0
 11
-36.71208724563508
 21
225.0728717612658
 31
0.0
  0
LINE
  5
1CF
330
1F
100
AcDbEntity
  8
0
  6
Continuous
 62
     7
100
AcDbLine
 10
-36.71208724563508
 20
222.0728717612658
 30
0.0
 11
-35.41208724563501
 21
222.0728717612658
 31
0.0
  0
LINE
  5
1D0
330
1F
100
AcDbEntity
  8
0
  6
Continuous
 62
     7
100
AcDbLine
 10
-35.41208724563501
 20
227.2228717612659
 30
0.0
 11
-35.41208724563501
 21
222.0728717612658
 31
0.0
  0
LINE
  5
1D1
330
1F
100
AcDbEntity
  8
0
  6
Continuous
 62
     7
100
AcDbLine
 10
-35.41208724563501
 20
227.2228717612659
 30
0.0
 11
-35.53321298279752
 21
227.2228717612659
 31
0.0
  0
LINE
  5
1D2
330
1F
100
AcDbEntity
  8
0
  6
Continuous
 62
     7
100
AcDbLine
 10
-67.61208724563505
 20
227.2228717612659
 30
0.0
 11
-67.49096150847254
 21
227.2228717612659
 31
0.0
  0
LINE
  5
1D3
330
1F
100
AcDbEntity
  8
0
  6
Continuous
 62
     7
100
AcDbLine
 10
-64.26208724563503
 20
222.5728717612658
 30
0.0
 11
-63.51208724563503
 21
221.8228717612658
 31
0.0
  0
LINE
  5
1D4
330
1F
100
AcDbEntity
  8
0
  6
Continuous
 62
     7
100
AcDbLine
 10
-63.51208724563503
 20
230.5728717612658
 30
0.0
 11
-63.51208724563503
 21
211.5678717612659
 31
0.0
  0
LINE
  5
1D5
330
1F
100
AcDbEntity
  8
0
  6
Continuous
 62
     7
100
AcDbLine
 10
-64.26208724563503
 20
227.5728717612658
 30
0.0
 11
-63.51208724563503
 21
228.3228717612658
 31
0.0
  0
LINE
  5
1D6
330
1F
100
AcDbEntity
  8
0
  6
Continuous
 62
     7
100
AcDbLine
 10
-65.01208724563503
 20
227.5728717612658
 30
0.0
 11
-64.26208724563503
 21
227.5728717612658
 31
0.0
  0
LINE
  5
1D7
330
1F
100
AcDbEntity
  8
0
  6
Continuous
 62
     7
100
AcDbLine
 10
-140.162087245635
 20
230.5728717612658
 30
0.0
 11
-134.8261888607738
 21
230.5728717612658
 31
0.0
  0
LINE
  5
1D8
330
1F
100
AcDbEntity
  8
0
  6
Continuous
 62
     7
100
AcDbLine
 10
-127.8979856304964
 20
230.5728717612658
 30
0.0
 11
-119.3620872456351
 21
230.5728717612658
 31
0.0
  0
LINE
  5
1D9
330
1F
100
AcDbEntity
  8
0
  6
Continuous
 62
     7
100
AcDbLine
 10
-131.3620872456352
 20
222.0728717612658
 30
0.0
 11
-131.3620872456352
 21
222.922871761266
 31
0.0
  0
LINE
  5
1DA
330
1F
100
AcDbEntity
  8
0
  6
Continuous
 62
     7
100
AcDbLine
 10
-149.8620872456351
 20
211.0728717612658
 30
0.0
 11
-112.8620872456351
 21
211.0728717612658
 31
0.0
  0
LINE
  5
1DB
330
1F
100
AcDbEntity
  8
0
  6
Continuous
 62
     7
100
AcDbLine
 10
-133.512087245635
 20
225.0728717612658
 30
0.0
 11
-133.512087245635
 21
222.9806241659751
 31
0.0
  0
LINE
  5
1DC
330
1F
100
AcDbEntity
  8
0
  6
Continuous
 62
     7
100
AcDbLine
 10
-119.3620872456351
 20
211.5678717612659
 30
0.0
 11
-119.3620872456351
 21
230.5728717612658
 31
0.0
  0
LINE
  5
1DD
330
1F
100
AcDbEntity
  8
0
  6
Continuous
 62
     7
100
AcDbLine
 10
-140.162087245635
 20
230.5728717612658
 30
0.0
 11
-142.8763782852551
 21
230.5728717612658
 31
0.0
  0
LINE
  5
1DE
330
1F
100
AcDbEntity
  8
0
  6
Continuous
 62
     7
100
AcDbLine
 10
-143.3620872456351
 20
211.5678717612659
 30
0.0
 11
-143.3620872456351
 21
225.1987827584074
 31
0.0
  0
LINE
  5
1DF
102
{ACAD_REACTORS
330
315
102
}
330
1F
100
AcDbEntity
  8
0
  6
Continuous
 62
     7
100
AcDbLine
 10
-65.51208724563503
 20
120.9067729364525
 30
0.0
 11
-65.51208724563503
 21
119.7666634796101
 31
0.0
  0
LINE
  5
1E0
330
1F
100
AcDbEntity
  8
0
  6
Continuous
 62
     7
100
AcDbLine
 10
-63.51208724563503
 20
119.9029253591592
 30
0.0
 11
-63.51208724563503
 21
102.3029253591592
 31
0.0
  0
LINE
  5
1E1
330
1F
100
AcDbEntity
  8
0
  6
Continuous
 62
     7
100
AcDbLine
 10
-62.31208724563498
 20
119.9030015130308
 30
0.0
 11
-62.31208724563498
 21
102.3028492052874
 31
0.0
  0
LINE
  5
1E2
330
1F
100
AcDbEntity
  8
0
  6
Continuous
 62
     7
100
AcDbLine
 10
-40.71208724563508
 20
102.3028492052874
 30
0.0
 11
-40.71208724563508
 21
119.9030015130308
 31
0.0
  0
LINE
  5
1E3
102
{ACAD_REACTORS
330
315
102
}
330
1F
100
AcDbEntity
  8
0
  6
Continuous
 62
     7
100
AcDbLine
 10
-40.01208724563503
 20
125.2368999553747
 30
0.0
 11
-49.01208724563503
 21
130.4330523780813
 31
0.0
  0
LINE
  5
1E4
102
{ACAD_REACTORS
330
315
102
}
330
1F
100
AcDbEntity
  8
0
  6
Continuous
 62
     7
100
AcDbLine
 10
-37.51208724563503
 20
120.9067729364525
 30
0.0
 11
-37.51208724563503
 21
119.7666634796102
 31
0.0
  0
LINE
  5
1E5
330
1F
100
AcDbEntity
  8
0
  6
Continuous
 62
     7
100
AcDbLine
 10
-39.51208724563503
 20
102.3029253591592
 30
0.0
 11
-39.51208724563503
 21
119.9029253591592
 31
0.0
  0
LINE
  5
1E6
330
1F
100
AcDbEntity
  8
0
  6
Continuous
 62
     7
100
AcDbLine
 10
-60.31208724563498
 20
99.10292535915912
 30
0.0
 11
-42.71208724563508
 21
99.10292535915912
 31
0.0
  0
LINE
  5
1E7
330
1F
100
AcDbEntity
  8
0
  6
Continuous
 62
     7
100
AcDbLine
 10
-60.31216339950674
 20
100.3029253591592
 30
0.0
 11
-42.71201109176343
 21
100.3029253591592
 31
0.0
  0
LINE
  5
1E8
102
{ACAD_REACTORS
330
315
102
}
330
1F
100
AcDbEntity
  8
0
  6
Continuous
 62
     7
100
AcDbLine
 10
-54.01208724563503
 20
130.4330523780813
 30
0.0
 11
-63.01208724563503
 21
125.2368999553747
 31
0.0
  0
LINE
  5
1E9
330
1F
100
AcDbEntity
  8
0
  6
Continuous
 62
     7
100
AcDbLine
 10
-42.71208724563508
 20
123.1029253591591
 30
0.0
 11
-60.31208724563498
 21
123.1029253591591
 31
0.0
  0
LINE
  5
1EA
330
1F
100
AcDbEntity
  8
0
  6
Continuous
 62
     7
100
AcDbLine
 10
-42.71201109176343
 20
121.9029253591592
 30
0.0
 11
-60.31216339950674
 21
121.9029253591592
 31
0.0
  0
ARC
  5
1EB
330
1F
100
AcDbEntity
  8
0
  6
Continuous
 62
     2
100
AcDbCircle
 10
-52.35303477182117
 20
228.7018446985981
 30
0.0
 40
0.1589659761025572
100
AcDbArc
 50
30.00000000004289
 51
180.0
  0
ARC
  5
1EC
330
1F
100
AcDbEntity
  8
0
  6
Continuous
 62
     2
100
AcDbCircle
 10
-52.31201804746667
 20
225.7719188087625
 30
0.0
 40
0.199982700457376
100
AcDbArc
 50
180.0
 51
0.0
  0
ARC
  5
1ED
330
1F
100
AcDbEntity
  8
0
  6
Continuous
 62
     2
100
AcDbCircle
 10
-50.71215644380357
 20
224.8484090959299
 30
0.0
 40
0.199982700457376
100
AcDbArc
 50
180.0
 51
0.0
  0
ARC
  5
1EE
330
1F
100
AcDbEntity
  8
0
  6
Continuous
 62
     2
100
AcDbCircle
 10
-50.67113971944815
 20
228.7018446985981
 30
0.0
 40
0.1589659761029907
100
AcDbArc
 50
0.0
 51
150.0000000000198
  0
ARC
  5
1EF
330
1F
100
AcDbEntity
  8
0
  6
Continuous
 62
     2
100
AcDbCircle
 10
-53.11194884929734
 20
228.2166563787872
 30
0.0
 40
0.1999827004576744
100
AcDbArc
 50
0.0
 51
180.0
  0
ARC
  5
1F0
330
1F
100
AcDbEntity
  8
0
  6
Continuous
 62
     2
100
AcDbCircle
 10
-51.71206994609253
 20
224.5022851912914
 30
0.0
 40
0.1999827004580691
100
AcDbArc
 50
240.0183606311257
 51
60.01836063110726
  0
ARC
  5
1F1
330
1F
100
AcDbEntity
  8
0
  6
Continuous
 62
     2
100
AcDbCircle
 10
-53.91187965112897
 20
227.7551578392691
 30
0.0
 40
0.1999827004574968
100
AcDbArc
 50
0.0
 51
180.0
  0
ARC
  5
1F2
330
1F
100
AcDbEntity
  8
0
  6
Continuous
 62
     2
100
AcDbCircle
 10
-53.91187965112897
 20
225.7714061749663
 30
0.0
 40
0.1999827004582926
100
AcDbArc
 50
180.0
 51
0.0
  0
ARC
  5
1F3
330
1F
100
AcDbEntity
  8
0
  6
Continuous
 62
     2
100
AcDbCircle
 10
-49.11229484014035
 20
227.7551578392691
 30
0.0
 40
0.1999827004578437
100
AcDbArc
 50
240.0183606311072
 51
60.01836063110958
  0
ARC
  5
1F4
330
1F
100
AcDbEntity
  8
0
  6
Continuous
 62
     2
100
AcDbCircle
 10
-49.11229484014035
 20
226.7632820071177
 30
0.0
 40
0.1999827004579231
100
AcDbArc
 50
270.0
 51
90.0
  0
ARC
  5
1F5
330
1F
100
AcDbEntity
  8
0
  6
Continuous
 62
     2
100
AcDbCircle
 10
-49.11229484014035
 20
225.7714061749663
 30
0.0
 40
0.1999827004581181
100
AcDbArc
 50
299.9816393688498
 51
119.981639368905
  0
ARC
  5
1F6
330
1F
100
AcDbEntity
  8
1
  6
DASHED
 62
     2
100
AcDbCircle
 10
-131.3620872456352
 20
225.0728717612658
 30
0.0
 40
28.99999999999997
100
AcDbArc
 50
127.1531689789952
 51
180.0
  0
ARC
  5
1F7
330
1F
100
AcDbEntity
  8
0
  6
Continuous
 62
     7
100
AcDbCircle
 10
-149.8620872456351
 20
209.5728717612658
 30
0.0
 40
1.5
100
AcDbArc
 50
90.0
 51
152.1818607153413
  0
ARC
  5
1F8
102
{ACAD_REACTORS
330
313
102
}
330
1F
100
AcDbEntity
  8
1
  6
Continuous
 62
     7
100
AcDbCircle
 10
-36.77380260482846
 20
98.75114706316319
 30
0.0
 40
1.292838926866453
100
AcDbArc
 50
196.7039423627774
 51
239.5146683116868
  0
ARC
  5
1F9
102
{ACAD_REACTORS
330
313
102
}
330
1F
100
AcDbEntity
  8
0
  6
Continuous
 62
     7
100
AcDbCircle
 10
-42.51208724563503
 20
101.2990777818658
 30
0.0
 40
5.000000000000066
100
AcDbArc
 50
299.9999999999995
 51
334.1580672368334
  0
ARC
  5
1FA
102
{ACAD_REACTORS
330
314
102
}
330
1F
100
AcDbEntity
  8
0
  6
Continuous
 62
     7
100
AcDbCircle
 10
-60.51208724563503
 20
101.2990777818658
 30
0.0
 40
4.999999999999977
100
AcDbArc
 50
205.8419327631666
 51
240.0000000000004
  0
ARC
  5
1FB
102
{ACAD_REACTORS
330
314
102
}
330
1F
100
AcDbEntity
  8
1
  6
Continuous
 62
     7
100
AcDbCircle
 10
-66.2503718864416
 20
98.75114706316319
 30
0.0
 40
1.292838926866408
100
AcDbArc
 50
300.4853316883129
 51
343.2960576372226
  0
ARC
  5
1FC
330
1F
100
AcDbEntity
  8
0
  6
Continuous
 62
     7
100
AcDbCircle
 10
-64.01208724563503
 20
209.5728717612658
 30
0.0
 40
1.5
100
AcDbArc
 50
90.0
 51
152.1818607153429
  0
ARC
  5
1FD
330
1F
100
AcDbEntity
  8
0
  6
Continuous
 62
     7
100
AcDbCircle
 10
-131.3620872456352
 20
225.0728717612658
 30
0.0
 40
2.150000000000007
100
AcDbArc
 50
127.0149692201048
 51
180.0
  0
ARC
  5
1FE
330
1F
100
AcDbEntity
  8
0
  6
Continuous
 62
     7
100
AcDbCircle
 10
-66.412087245635
 20
226.5150770767548
 30
0.0
 40
1.400000000000007
100
AcDbArc
 50
8.21321070174238
 51
38.77016384212308
  0
ARC
  5
1FF
330
1F
100
AcDbEntity
  8
0
  6
Continuous
 62
     7
100
AcDbCircle
 10
-66.412087245635
 20
226.5150770767548
 30
0.0
 40
1.40000000000002
100
AcDbArc
 50
38.77016384212308
 51
90.0
  0
ARC
  5
200
330
1F
100
AcDbEntity
  8
0
  6
Continuous
 62
     7
100
AcDbCircle
 10
-66.412087245635
 20
228.1150770767549
 30
0.0
 40
1.399999999999977
100
AcDbArc
 50
180.0
 51
211.1084260736242
  0
ARC
  5
201
330
1F
100
AcDbEntity
  8
0
  6
Continuous
 62
     7
100
AcDbCircle
 10
-66.412087245635
 20
228.1150770767549
 30
0.0
 40
0.2000000000000455
100
AcDbArc
 50
180.0
 51
270.0
  0
ARC
  5
202
330
1F
100
AcDbEntity
  8
0
  6
Continuous
 62
     7
100
AcDbCircle
 10
-66.412087245635
 20
228.1150770767549
 30
0.0
 40
1.400000000000019
100
AcDbArc
 50
211.1084260736242
 51
270.0
  0
ARC
  5
203
330
1F
100
AcDbEntity
  8
0
  6
Continuous
 62
     7
100
AcDbCircle
 10
-36.61208724563505
 20
228.1150770767549
 30
0.0
 40
1.400000000000019
100
AcDbArc
 50
328.8915739263758
 51
0.0
  0
ARC
  5
204
330
1F
100
AcDbEntity
  8
0
  6
Continuous
 62
     7
100
AcDbCircle
 10
-36.61208724563505
 20
226.5150770767548
 30
0.0
 40
1.400000000000091
100
AcDbArc
 50
90.0
 51
141.2298361578769
  0
ARC
  5
205
330
1F
100
AcDbEntity
  8
0
  6
Continuous
 62
     7
100
AcDbCircle
 10
-36.61208724563505
 20
228.1150770767549
 30
0.0
 40
0.1999999999999886
100
AcDbArc
 50
270.0
 51
0.0
  0
ARC
  5
206
330
1F
100
AcDbEntity
  8
0
  6
Continuous
 62
     7
100
AcDbCircle
 10
-36.61208724563505
 20
228.1150770767549
 30
0.0
 40
1.399999999999977
100
AcDbArc
 50
270.0
 51
328.8915739263758
  0
ARC
  5
207
330
1F
100
AcDbEntity
  8
0
  6
Continuous
 62
     7
100
AcDbCircle
 10
-36.61208724563505
 20
226.5150770767548
 30
0.0
 40
1.40000000000002
100
AcDbArc
 50
141.2298361578769
 51
171.7867892982576
  0
ARC
  5
208
330
1F
100
AcDbEntity
  8
0
  6
Continuous
 62
     7
100
AcDbCircle
 10
-66.412087245635
 20
226.5150770767548
 30
0.0
 40
0.1999999999999318
100
AcDbArc
 50
0.0
 51
90.0
  0
ARC
  5
209
330
1F
100
AcDbEntity
  8
0
  6
Continuous
 62
     7
100
AcDbCircle
 10
-36.61208724563505
 20
226.5150770767548
 30
0.0
 40
0.2000000000001023
100
AcDbArc
 50
90.0
 51
180.0
  0
ARC
  5
20A
330
1F
100
AcDbEntity
  8
0
  6
Continuous
 62
     7
100
AcDbCircle
 10
-146.9081322257372
 20
241.4633913001397
 30
0.0
 40
3.000000000000834
100
AcDbArc
 50
290.4067007394312
 51
334.8319730306792
  0
ARC
  5
20B
330
1F
100
AcDbEntity
  8
0
  6
Continuous
 62
     7
100
AcDbCircle
 10
-146.5620872456349
 20
232.8296100862067
 30
0.0
 40
1.999999999999915
100
AcDbArc
 50
180.0
 51
219.9999999999971
  0
ARC
  5
20C
330
1F
100
AcDbEntity
  8
0
  6
Continuous
 62
     7
100
AcDbCircle
 10
-131.3620872456351
 20
237.5728717612658
 30
0.0
 40
1.5
100
AcDbArc
 50
90.0
 51
180.0
  0
ARC
  5
20D
330
1F
100
AcDbEntity
  8
0
  6
Continuous
 62
     7
100
AcDbCircle
 10
-129.8826122687698
 20
233.4633913001397
 30
0.0
 40
15.81138830084226
100
AcDbArc
 50
149.8971805335121
 51
154.8319730306772
  0
ARC
  5
20E
330
1F
100
AcDbEntity
  8
0
  6
Continuous
 62
     7
100
AcDbCircle
 10
-133.3620872456351
 20
239.2798970140687
 30
0.0
 40
1.999999999999962
100
AcDbArc
 50
145.0000000000022
 51
180.0
  0
ARC
  5
20F
330
1F
100
AcDbEntity
  8
0
  6
Continuous
 62
     7
100
AcDbCircle
 10
-134.3620872456351
 20
236.4104945918257
 30
0.0
 40
1.0
100
AcDbArc
 50
179.9999999999316
 51
270.0
  0
ARC
  5
210
330
1F
100
AcDbEntity
  8
0
  6
Continuous
 62
     7
100
AcDbCircle
 10
-150.562087245635
 20
238.5307759838297
 30
0.0
 40
2.0
100
AcDbArc
 50
0.0
 51
49.99999999998794
  0
ARC
  5
211
330
1F
100
AcDbEntity
  8
0
  6
Continuous
 62
     7
100
AcDbCircle
 10
-150.5613899498392
 20
238.5301910521467
 30
0.0
 40
3.19999999999934
100
AcDbArc
 50
358.8038681606889
 51
50.01629610893598
  0
ARC
  5
212
330
1F
100
AcDbEntity
  8
0
  6
Continuous
 62
     7
100
AcDbCircle
 10
-146.908132225735
 20
241.4633913001401
 30
0.0
 40
3.000000000000398
100
AcDbArc
 50
269.9999999999577
 51
290.4067007393889
  0
ARC
  5
213
330
1F
100
AcDbEntity
  8
0
  6
Continuous
 62
     7
100
AcDbCircle
 10
-132.640296766394
 20
227.8523140139667
 30
0.0
 40
9.559267692611904
100
AcDbArc
 50
243.8271990795868
 51
294.6967487399927
  0
ARC
  5
214
330
1F
100
AcDbEntity
  8
0
  6
Continuous
 62
     7
100
AcDbCircle
 10
-129.8826122687698
 20
233.4633913001397
 30
0.0
 40
13.31138830084156
100
AcDbArc
 50
110.0940434056604
 51
203.6898059208649
  0
ARC
  5
215
330
1F
100
AcDbEntity
  8
0
  6
Continuous
 62
     7
100
AcDbCircle
 10
-129.8848114075989
 20
233.462366269013
 30
0.0
 40
15.80999999999988
100
AcDbArc
 50
114.9860978056566
 51
149.8899695744448
  0
ARC
  5
216
330
1F
100
AcDbEntity
  8
0
  6
Continuous
 62
     7
100
AcDbCircle
 10
-128.1983491251818
 20
243.0728717612658
 30
0.0
 40
4.0
100
AcDbArc
 50
269.999999999967
 51
46.38036977979114
  0
ARC
  5
217
330
1F
100
AcDbEntity
  8
0
  6
Continuous
 62
     7
100
AcDbCircle
 10
-133.9405571936842
 20
244.5558200954768
 30
0.0
 40
1.500000000000185
100
AcDbArc
 50
325.0000000000317
 51
110.0940434056344
  0
ARC
  5
218
330
1F
100
AcDbEntity
  8
0
  6
Continuous
 62
     7
100
AcDbCircle
 10
-131.3620872456352
 20
225.0728717612658
 30
0.0
 40
2.24999999999999
100
AcDbArc
 50
271.2294714259618
 51
125.0000000000065
  0
ARC
  5
219
330
1F
100
AcDbEntity
  8
0
  6
Continuous
 62
     7
100
AcDbCircle
 10
-132.3375548044302
 20
238.7292584791149
 30
0.0
 40
10.00000000000073
100
AcDbArc
 50
46.38036977979258
 51
114.9948907456
  0
ARC
  5
21A
330
1F
100
AcDbEntity
  8
0
  6
Continuous
 62
     7
100
AcDbCircle
 10
-131.3620872456352
 20
225.0728717612658
 30
0.0
 40
6.500000000000856
100
AcDbArc
 50
294.6967487400008
 51
163.3025271738355
  0
ARC
  5
21B
330
1F
100
AcDbEntity
  8
0
  6
Continuous
 62
     7
100
AcDbCircle
 10
-139.5036861793211
 20
227.5150770767548
 30
0.0
 40
1.999999999999731
100
AcDbArc
 50
211.7267967022769
 51
343.3025271738381
  0
ARC
  5
21C
330
1F
100
AcDbEntity
  8
0
  6
Continuous
 62
     7
100
AcDbCircle
 10
-146.9081322257372
 20
225.4633913001397
 30
0.0
 40
3.00000000000063
100
AcDbArc
 50
24.65974016074392
 51
39.99999999999999
  0
ARC
  5
21D
330
1F
100
AcDbEntity
  8
0
  6
Continuous
 62
     7
100
AcDbCircle
 10
-129.8826122687698
 20
233.4633913001397
 30
0.0
 40
15.81138830084237
100
AcDbArc
 50
205.2647057211342
 51
206.0687927680971
  0
ARC
  5
21E
330
1F
100
AcDbEntity
  8
0
  6
Continuous
 62
     7
100
AcDbCircle
 10
-129.8826122687698
 20
233.4633913001397
 30
0.0
 40
13.31138830084151
100
AcDbArc
 50
203.6898059208649
 51
210.4614124067242
  0
ARC
  5
21F
330
1F
100
AcDbEntity
  8
0
  6
Continuous
 62
     7
100
AcDbCircle
 10
-129.8826122687698
 20
233.4633913001397
 30
0.0
 40
13.31138830084148
100
AcDbArc
 50
210.4614124067242
 51
211.4653403830721
  0
ARC
  5
220
330
1F
100
AcDbEntity
  8
0
  6
Continuous
 62
     7
100
AcDbCircle
 10
-129.8826122687991
 20
233.4633913001875
 30
0.0
 40
13.31138830084144
100
AcDbArc
 50
211.4653403833135
 51
211.7267967025328
  0
ARC
  5
221
330
1F
100
AcDbEntity
  8
0
  6
Continuous
 62
     7
100
AcDbCircle
 10
-129.8826122687713
 20
233.4633913001412
 30
0.0
 40
15.81138830084155
100
AcDbArc
 50
206.0687927681044
 51
243.8271990795978
  0
ARC
  5
222
330
1F
100
AcDbEntity
  8
0
  6
Continuous
 62
     7
100
AcDbCircle
 10
-128.1983491251841
 20
243.0728717612658
 30
0.0
 40
5.499999999999969
100
AcDbArc
 50
151.066476696081
 51
187.5107873568903
  0
ARC
  5
223
330
1F
100
AcDbEntity
  8
0
  6
Continuous
 62
     7
100
AcDbCircle
 10
-128.1983491251841
 20
243.0728717612658
 30
0.0
 40
5.499999999999903
100
AcDbArc
 50
228.0490178461715
 51
105.6256661467552
  0
ARC
  5
224
330
1F
100
AcDbEntity
  8
0
  6
Continuous
 62
     7
100
AcDbCircle
 10
-128.1983491251841
 20
243.0728717612658
 30
0.0
 40
5.499999999999969
100
AcDbArc
 50
151.066476696081
 51
187.5107873568903
  0
ARC
  5
225
330
1F
100
AcDbEntity
  8
0
  6
Continuous
 62
     7
100
AcDbCircle
 10
-128.1983491251841
 20
243.0728717612658
 30
0.0
 40
5.499999999999903
100
AcDbArc
 50
228.0490178461715
 51
105.6256661467552
  0
ARC
  5
226
330
1F
100
AcDbEntity
  8
0
  6
Continuous
 62
     7
100
AcDbCircle
 10
-37.91208724563501
 20
96.60292535915934
 30
0.0
 40
2.699999999999932
100
AcDbArc
 50
270.0
 51
337.2056880306642
  0
ARC
  5
227
330
1F
100
AcDbEntity
  8
0
  6
Continuous
 62
     7
100
AcDbCircle
 10
-37.91208724563501
 20
96.60292535915934
 30
0.0
 40
2.699999999999856
100
AcDbArc
 50
337.2056880306642
 51
0.0
  0
ARC
  5
228
330
1F
100
AcDbEntity
  8
0
  6
Continuous
 62
     7
100
AcDbCircle
 10
-65.11208724563505
 20
96.60292535915934
 30
0.0
 40
2.699999999999961
100
AcDbArc
 50
202.7943119693348
 51
270.0
  0
ARC
  5
229
330
1F
100
AcDbEntity
  8
0
  6
Continuous
 62
     7
100
AcDbCircle
 10
-65.11208724563505
 20
96.60292535915934
 30
0.0
 40
2.699999999999932
100
AcDbArc
 50
180.0
 51
202.7943119693348
  0
ARC
  5
22A
330
1F
100
AcDbEntity
  8
0
  6
Continuous
 62
     7
100
AcDbCircle
 10
-39.01708724563503
 20
211.5678717612659
 30
0.0
 40
0.4949999999999974
100
AcDbArc
 50
180.0
 51
270.0
  0
ARC
  5
22B
330
1F
100
AcDbEntity
  8
0
  6
Continuous
 62
     7
100
AcDbCircle
 10
-39.01208724563503
 20
209.5728717612658
 30
0.0
 40
1.500000000000054
100
AcDbArc
 50
27.81813928465727
 51
90.0
  0
ARC
  5
22C
330
1F
100
AcDbEntity
  8
0
  6
Continuous
 62
     7
100
AcDbCircle
 10
-64.00708724563503
 20
211.5678717612659
 30
0.0
 40
0.4950000000001182
100
AcDbArc
 50
270.0
 51
0.0
  0
ARC
  5
22D
330
1F
100
AcDbEntity
  8
0
  6
Continuous
 62
     7
100
AcDbCircle
 10
-131.3620872456352
 20
225.0728717612658
 30
0.0
 40
2.999999999999815
100
AcDbArc
 50
224.2200444276851
 51
270.0
  0
ARC
  5
22E
330
1F
100
AcDbEntity
  8
0
  6
Continuous
 62
     7
100
AcDbCircle
 10
-112.8620872456351
 20
209.5728717612658
 30
0.0
 40
1.499999999999984
100
AcDbArc
 50
27.81813928465866
 51
90.0
  0
ARC
  5
22F
330
1F
100
AcDbEntity
  8
0
  6
Continuous
 62
     7
100
AcDbCircle
 10
-118.8670872456351
 20
211.5678717612659
 30
0.0
 40
0.4949999999999903
100
AcDbArc
 50
180.0
 51
270.0
  0
ARC
  5
230
330
1F
100
AcDbEntity
  8
0
  6
Continuous
 62
     7
100
AcDbCircle
 10
-143.8570872456351
 20
211.5678717612659
 30
0.0
 40
0.4950000000001182
100
AcDbArc
 50
270.0
 51
0.0
  0
ARC
  5
231
102
{ACAD_REACTORS
330
315
102
}
330
1F
100
AcDbEntity
  8
0
  6
Continuous
 62
     7
100
AcDbCircle
 10
-60.51208724563503
 20
120.9067729364525
 30
0.0
 40
5.000000000000004
100
AcDbArc
 50
120.0
 51
180.0
  0
ARC
  5
232
330
1F
100
AcDbEntity
  8
0
  6
Continuous
 62
     7
100
AcDbCircle
 10
-60.31208724563498
 20
119.9029253591592
 30
0.0
 40
3.199999999999903
100
AcDbArc
 50
90.0
 51
180.0
  0
ARC
  5
233
330
1F
100
AcDbEntity
  8
0
  6
Continuous
 62
     7
100
AcDbCircle
 10
-60.31208724563498
 20
102.3029253591592
 30
0.0
 40
3.200000000000053
100
AcDbArc
 50
180.0
 51
270.0
  0
ARC
  5
234
330
1F
100
AcDbEntity
  8
0
  6
Continuous
 62
     7
100
AcDbCircle
 10
-42.71208724563508
 20
119.9029253591592
 30
0.0
 40
3.200000000000053
100
AcDbArc
 50
0.0
 51
90.0
  0
ARC
  5
235
330
1F
100
AcDbEntity
  8
0
  6
Continuous
 62
     7
100
AcDbCircle
 10
-42.71208724563508
 20
102.3029253591592
 30
0.0
 40
3.200000000000088
100
AcDbArc
 50
270.0
 51
0.0
  0
ARC
  5
236
102
{ACAD_REACTORS
330
315
102
}
330
1F
100
AcDbEntity
  8
0
  6
Continuous
 62
     7
100
AcDbCircle
 10
-42.51208724563503
 20
120.9067729364525
 30
0.0
 40
5.0
100
AcDbArc
 50
0.0
 51
60.00000000000004
  0
ARC
  5
237
330
1F
100
AcDbEntity
  8
0
  6
Continuous
 62
     7
100
AcDbCircle
 10
-51.51208724563503
 20
96.10292535915912
 30
0.0
 40
1.64999999999991
100
AcDbArc
 50
322.7252339571164
 51
217.2747660428836
  0
ARC
  5
238
102
{ACAD_REACTORS
330
315
102
}
330
1F
100
AcDbEntity
  8
0
  6
Continuous
 62
     7
100
AcDbCircle
 10
-51.51208724563503
 20
126.1029253591591
 30
0.0
 40
5.000000000000004
100
AcDbArc
 50
60.00000000000004
 51
120.0
  0
CIRCLE
  5
239
330
1F
100
AcDbEntity
  8
1
  6
Continuous
 62
     7
100
AcDbCircle
 10
-132.855091818563
 20
131.6594747273784
 30
0.0
 40
1.600000000000023
  0
CIRCLE
  5
23A
330
1F
100
AcDbEntity
  8
1
  6
Continuous
 62
     7
100
AcDbCircle
 10
-132.855091818563
 20
101.6594747273784
 30
0.0
 40
1.600000000000023
  0
CIRCLE
  5
23B
330
1F
100
AcDbEntity
  8
0
  6
Continuous
 62
     7
100
AcDbCircle
 10
-128.1983491251841
 20
243.0728717612658
 30
0.0
 40
1.75
  0
CIRCLE
  5
23C
330
1F
100
AcDbEntity
  8
0
  6
Continuous
 62
     7
100
AcDbCircle
 10
-128.1983491251841
 20
243.0728717612658
 30
0.0
 40
1.75
  0
CIRCLE
  5
23D
330
1F
100
AcDbEntity
  8
0
  6
Continuous
 62
     7
100
AcDbCircle
 10
-51.51208724563503
 20
219.5728717612658
 30
0.0
 40
3.5
  0
CIRCLE
  5
23E
330
1F
100
AcDbEntity
  8
0
  6
Continuous
 62
     7
100
AcDbCircle
 10
-51.51208724563503
 20
126.1029253591591
 30
0.0
 40
1.649999999999977
  0
SPLINE
  5
23F
330
1F
100
AcDbEntity
  8
1
  6
Continuous
 62
     7
100
AcDbSpline
210
0.0
220
0.0
230
1.0
 70
    11
 71
     3
 72
    59
 73
    55
 74
    53
 42
0.000000001
 43
0.0000000001
 44
0.00000001
 40
0.0
 40
0.0
 40
0.0
 40
0.0
 40
4.521243181554991
 40
9.098476554095505
 40
14.43238708931529
 40
19.74376843322829
 40
23.95226839551404
 40
28.26905048240783
 40
30.26587644891765
 40
32.03320342741043
 40
33.60691268975697
 40
35.3503114732391
 40
37.54361171392254
 40
39.67021859646274
 40
45.90263522563386
 40
52.17868687688389
 40
54.46046649917674
 40
56.74739176398258
 40
61.06374977907713
 40
65.36261225153972
 40
69.17548985618818
 40
73.0001099545496
 40
76.82706257960396
 40
80.77878064616208
 40
82.46242424532493
 40
83.95110819826365
 40
85.28232767367933
 40
86.77841779857053
 40
90.04310557461022
 40
93.05167384419698
 40
97.1852156366908
 40
101.4239750042978
 40
106.0797588986049
 40
110.5732002790335
 40
114.1046552416127
 40
117.6340826959059
 40
119.1866292892841
 40
120.6159328658299
 40
121.6027528341179
 40
122.6656235096297
 40
125.3718198072451
 40
127.9230902631925
 40
131.4472781222021
 40
135.180947360673
 40
140.3202795094383
 40
145.3947289178239
 40
152.086161099922
 40
158.7409387155142
 40
163.1061574032269
 40
167.6275524979305
 40
169.2335283776752
 40
170.6965429504411
 40
174.1852105668044
 40
177.1565059881231
 40
177.1565059881231
 40
177.1565059881231
 40
177.1565059881231
 10
-145.5304334994957
 20
143.1594747273784
 30
0.0
 10
-144.0394785461763
 20
142.8029835722578
 30
0.0
 10
-141.0391049469208
 20
142.0855865348077
 30
0.0
 10
-136.2971859640427
 20
143.4639750255973
 30
0.0
 10
-131.2070731725959
 20
143.2454752537443
 30
0.0
 10
-126.2433882812194
 20
142.9678793719501
 30
0.0
 10
-121.6868326798485
 20
143.7001397132684
 30
0.0
 10
-118.1006493690911
 20
143.5078347270779
 30
0.0
 10
-115.5907525404314
 20
142.5224551648751
 30
0.0
 10
-114.1684980352501
 20
141.2303663322461
 30
0.0
 10
-114.1091567330108
 20
139.4375320928823
 30
0.0
 10
-114.4253080864679
 20
137.6485878072765
 30
0.0
 10
-114.4244676091197
 20
135.6082746328995
 30
0.0
 10
-113.9990885660391
 20
132.1190076256821
 30
0.0
 10
-113.2856815574495
 20
127.2920587307946
 30
0.0
 10
-112.7218348229007
 20
122.3901188024918
 30
0.0
 10
-112.5548540549987
 20
118.7781770113799
 30
0.0
 10
-112.7337955137458
 20
115.8071462295898
 30
0.0
 10
-113.7973126945458
 20
112.3160306638799
 30
0.0
 10
-115.0051889935676
 20
108.3267744866635
 30
0.0
 10
-114.9586787199543
 20
104.3007041821919
 30
0.0
 10
-114.3524104373033
 20
100.5321663345963
 30
0.0
 10
-113.7543260179738
 20
96.7037320986162
 30
0.0
 10
-114.0653140102437
 20
93.49919559804141
 30
0.0
 10
-114.8527902479638
 20
91.26583787362095
 30
0.0
 10
-115.8706664361949
 20
90.01397694383837
 30
0.0
 10
-117.3899800102303
 20
89.85366438658093
 30
0.0
 10
-119.3753500097415
 20
90.25468332580033
 30
0.0
 10
-121.8098240789806
 20
91.11666966348815
 30
0.0
 10
-125.2539269882591
 20
91.98194631708509
 30
0.0
 10
-128.965434567472
 20
90.88035837222975
 30
0.0
 10
-133.2690981889994
 20
89.7217621121429
 30
0.0
 10
-137.5643340034721
 20
91.18638181389237
 30
0.0
 10
-141.868202274903
 20
92.30585537713733
 30
0.0
 10
-145.3965013244124
 20
90.55356325852794
 30
0.0
 10
-148.3321178473208
 20
89.82472780845687
 30
0.0
 10
-150.4076447643733
 20
90.60733212152203
 30
0.0
 10
-151.4285031349455
 20
91.5955210413263
 30
0.0
 10
-151.5530281325031
 20
92.79665000932997
 30
0.0
 10
-151.2742900528522
 20
94.35842821111662
 30
0.0
 10
-150.5767604262906
 20
96.34504018486886
 30
0.0
 10
-149.7004224050306
 20
99.18072220312288
 30
0.0
 10
-150.2600035807587
 20
102.5010904524386
 30
0.0
 10
-151.5886286572581
 20
106.3930090670861
 30
0.0
 10
-152.3475376412804
 20
111.0176088028653
 30
0.0
 10
-152.4464309852184
 20
116.6582279287902
 30
0.0
 10
-152.0171961809293
 20
122.788665497151
 30
0.0
 10
-151.4002595838008
 20
128.6603227874565
 30
0.0
 10
-150.9926557202349
 20
133.8233842295903
 30
0.0
 10
-151.1509616941267
 20
137.3459819140234
 30
0.0
 10
-151.6298183651491
 20
139.8205591673724
 30
0.0
 10
-151.4348821311636
 20
142.0984443004504
 30
0.0
 10
-148.6331615024044
 20
143.7283710436128
 30
0.0
 10
-146.507940536519
 20
143.3387041472065
 30
0.0
 10
-145.5304334994957
 20
143.1594747273784
 30
0.0
 11
-145.5304334994957
 21
143.1594747273784
 31
0.0
 11
-141.0602773342133
 21
142.4817256438903
 31
0.0
 11
-136.5334990631426
 21
143.1594747273783
 31
0.0
 11
-131.2001031456194
 21
143.2335665926818
 31
0.0
 11
-125.8892386032318
 21
143.1594747273784
 31
0.0
 11
-121.6985717998421
 21
143.5464936900153
 31
0.0
 11
-117.3991737125887
 21
143.1594747273784
 31
0.0
 11
-115.5662370909923
 21
142.367226481076
 31
0.0
 11
-114.3550918185631
 21
141.0801477030525
 31
0.0
 11
-114.1626861066669
 21
139.518244733071
 31
0.0
 11
-114.3550918185631
 21
137.7854956559375
 31
0.0
 11
-114.3797227012871
 21
135.5923337212414
 31
0.0
 11
-114.160035985367
 21
133.4771045174015
 31
0.0
 11
-113.3207981920156
 21
127.3014509492686
 31
0.0
 11
-112.6741595346453
 21
121.0588006475056
 31
0.0
 11
-112.595431365308
 21
118.7783796071281
 31
0.0
 11
-112.7542362225813
 21
116.4969747361156
 31
0.0
 11
-113.7982364893107
 21
112.3087758436586
 31
0.0
 11
-114.8221274163673
 21
108.1336272318996
 31
0.0
 11
-114.8654793660934
 21
104.3209960882687
 31
0.0
 11
-114.355091818563
 21
100.5305840462495
 31
0.0
 11
-113.9196835009202
 21
96.72848120815004
 31
0.0
 11
-114.355091818563
 21
92.80082347417164
 31
0.0
 11
-114.9775275233334
 21
91.2364611239658
 31
0.0
 11
-116.0052824618862
 21
90.15947472737832
 31
0.0
 11
-117.3155695630959
 21
89.92433008155493
 31
0.0
 11
-118.7930649632913
 21
90.15947472737838
 31
0.0
 11
-121.9199863168631
 21
91.09785051805251
 31
0.0
 11
-124.8754995118117
 21
91.66036699632357
 31
0.0
 11
-128.9397319118774
 21
90.9065880154817
 31
0.0
 11
-133.1121296295998
 21
90.15947472737838
 31
0.0
 11
-137.6604279922279
 21
91.15411319341781
 31
0.0
 11
-142.1090640659529
 21
91.78708438275159
 31
0.0
 11
-145.459737784468
 21
90.6716652742147
 31
0.0
 11
-148.9518029330384
 21
90.15947472737841
 31
0.0
 11
-150.3971917661115
 21
90.72626573493928
 31
0.0
 11
-151.3550918185631
 21
91.78708438275166
 31
0.0
 11
-151.5054551535485
 21
92.76238152583355
 31
0.0
 11
-151.3550918185631
 21
93.81456256559166
 31
0.0
 11
-150.5743872278611
 21
96.40570106906881
 31
0.0
 11
-149.9655420244584
 21
98.88325802269152
 31
0.0
 11
-150.3338280835574
 21
102.3881496678767
 31
0.0
 11
-151.3550918185631
 21
105.9794316626325
 31
0.0
 11
-152.225486818923
 21
111.044522725868
 31
0.0
 11
-152.3731723665811
 21
116.1168225768335
 31
0.0
 11
-151.9776570915156
 21
122.7965555293914
 31
0.0
 11
-151.355091818563
 21
129.4221481517216
 31
0.0
 11
-151.0853402001912
 21
133.7790241261475
 31
0.0
 11
-151.355091818563
 21
138.2923652016476
 31
0.0
 11
-151.5608373477537
 21
139.885107272089
 31
0.0
 11
-151.3550918185631
 21
141.3335824759075
 31
0.0
 11
-148.4966240146692
 21
143.3335733588402
 31
0.0
 11
-145.5304334994957
 21
143.1594747273784
 31
0.0
  0
SPLINE
  5
240
330
1F
100
AcDbEntity
  8
0
  6
Continuous
 62
     7
100
AcDbSpline
210
0.0
220
0.0
230
1.0
 70
     8
 71
     3
 72
    11
 73
     7
 74
     5
 42
0.000000001
 43
0.0000000001
 44
0.00000001
 40
0.0
 40
0.0
 40
0.0
 40
0.0
 40
0.1177792148477445
 40
0.2373838022954489
 40
0.5446342920799837
 40
0.8563530858570813
 40
0.8563530858570813
 40
0.8563530858570813
 40
0.8563530858570813
 10
-65.59449173755615
 20
97.6370313954163
 30
0.0
 10
-65.62860059027014
 20
97.61753244412859
 30
0.0
 10
-65.69734693046341
 20
97.57823235456507
 30
0.0
 10
-65.86352571765585
 20
97.50482050112146
 30
0.0
 10
-66.10138118310691
 20
97.43245229319666
 30
0.0
 10
-66.30802131633075
 20
97.42143966969712
 30
0.0
 10
-66.412087245635
 20
97.4158936161343
 30
0.0
 11
-65.59449173755615
 21
97.6370313954163
 31
0.0
 11
-65.6977252367756
 21
97.58033229171666
 31
0.0
 11
-65.80683848414228
 21
97.53134701981648
 31
0.0
 11
-66.10174165417709
 21
97.44512066095977
 31
0.0
 11
-66.412087245635
 21
97.4158936161343
 31
0.0
  0
SPLINE
  5
241
330
1F
100
AcDbEntity
  8
0
  6
Continuous
 62
     7
100
AcDbSpline
210
0.0
220
0.0
230
1.0
 70
     8
 71
     3
 72
    11
 73
     7
 74
     5
 42
0.000000001
 43
0.0000000001
 44
0.00000001
 40
0.0
 40
0.0
 40
0.0
 40
0.0
 40
0.6550836221909192
 40
1.391125113505729
 40
2.157223215802691
 40
2.936478008610377
 40
2.936478008610377
 40
2.936478008610377
 40
2.936478008610377
 10
-66.73122489704554
 20
231.5440348668338
 30
0.0
 10
-66.87144923875546
 20
231.3762217397652
 30
0.0
 10
-67.1692273981703
 20
231.0198564549279
 30
0.0
 10
-67.5248242062583
 20
230.3898825353113
 30
0.0
 10
-67.76686499065181
 20
229.6602990929732
 30
0.0
 10
-67.79692785007947
 20
229.1441876515337
 30
0.0
 10
-67.81208724563498
 20
228.88393491767
 30
0.0
 11
-66.73122489704554
 21
231.5440348668338
 31
0.0
 11
-67.13671589143416
 21
231.0295335484188
 31
0.0
 11
-67.49868227399747
 21
230.3886455571769
 31
0.0
 11
-67.7325644787933
 21
229.6591214523425
 31
0.0
 11
-67.81208724563498
 21
228.88393491767
 31
0.0
  0
SPLINE
  5
242
330
1F
100
AcDbEntity
  8
0
  6
Continuous
 62
     7
100
AcDbSpline
210
0.0
220
0.0
230
1.0
 70
     8
 71
     3
 72
    11
 73
     7
 74
     5
 42
0.000000001
 43
0.0000000001
 44
0.00000001
 40
0.0
 40
0.0
 40
0.0
 40
0.0
 40
0.6678027373297488
 40
1.20268942219293
 40
1.707106273314129
 40
2.224252533075217
 40
2.224252533075217
 40
2.224252533075217
 40
2.224252533075217
 10
-66.73122489704554
 20
231.5440348668338
 30
0.0
 10
-66.58828580994499
 20
231.715340758714
 30
0.0
 10
-66.33085749492471
 20
232.0238566844982
 30
0.0
 10
-65.89471631686756
 20
232.3915196998923
 30
0.0
 10
-65.50090430907315
 20
232.7287920162432
 30
0.0
 10
-65.2427651283621
 20
232.950935510803
 30
0.0
 10
-65.11208724563505
 20
233.0633913001397
 30
0.0
 11
-66.73122489704554
 21
231.5440348668338
 31
0.0
 11
-66.28704090983285
 21
232.0426941517469
 31
0.0
 11
-65.88761063706147
 21
232.3984457856932
 31
0.0
 11
-65.50420703645686
 21
232.7262232082798
 31
0.0
 11
-65.11208724563505
 21
233.0633913001397
 31
0.0
  0
SPLINE
  5
243
330
1F
100
AcDbEntity
  8
0
  6
Continuous
 62
     7
100
AcDbSpline
210
0.0
220
0.0
230
1.0
 70
     8
 71
     3
 72
    13
 73
     9
 74
     7
 42
0.000000001
 43
0.0000000001
 44
0.00000001
 40
0.0
 40
0.0
 40
0.0
 40
0.0
 40
0.7310685737935255
 40
1.437048988014875
 40
2.096337746963794
 40
2.694672033592767
 40
3.229656872548153
 40
3.715378363306639
 40
3.715378363306639
 40
3.715378363306639
 40
3.715378363306639
 10
-46.55625552144136
 20
243.3201169582588
 30
0.0
 10
-46.31228589764824
 20
243.3093828317582
 30
0.0
 10
-45.83271898319826
 20
243.288282930431
 30
0.0
 10
-45.15029733071054
 20
243.1192635460251
 30
0.0
 10
-44.54503255218686
 20
242.8589955628096
 30
0.0
 10
-44.05692451066488
 20
242.5097906979707
 30
0.0
 10
-43.69274591158746
 20
242.0930186608062
 30
0.0
 10
-43.59462243006124
 20
241.7637054746486
 30
0.0
 10
-43.54792861052601
 20
241.6069958612887
 30
0.0
 11
-46.55625552144136
 21
243.3201169582588
 31
0.0
 11
-45.82739118691268
 21
243.2633892446498
 31
0.0
 11
-45.1414091769189
 21
243.0965449282253
 31
0.0
 11
-44.53866979847067
 21
242.8293990681775
 31
0.0
 11
-44.0546339450143
 21
242.4776701740604
 31
0.0
 11
-43.7177812566832
 21
242.0620512967224
 31
0.0
 11
-43.54792861052601
 21
241.6069958612887
 31
0.0
  0
SPLINE
  5
244
330
1F
100
AcDbEntity
  8
0
  6
Continuous
 62
     7
100
AcDbSpline
210
0.0
220
0.0
230
1.0
 70
     8
 71
     3
 72
     9
 73
     5
 74
     3
 42
0.000000001
 43
0.0000000001
 44
0.00000001
 40
0.0
 40
0.0
 40
0.0
 40
0.0
 40
0.0799892068545167
 40
0.165048220409162
 40
0.165048220409162
 40
0.165048220409162
 40
0.165048220409162
 10
-44.4225415802008
 20
243.5679374200318
 30
0.0
 10
-44.448856917627
 20
243.5636390689653
 30
0.0
 10
-44.50315549150517
 20
243.5547699522438
 30
0.0
 10
-44.55764936732319
 20
243.5471916078231
 30
0.0
 10
-44.58573325431598
 20
243.5432860533448
 30
0.0
 11
-44.4225415802008
 21
243.5679374200318
 31
0.0
 11
-44.50153346596342
 21
243.55534554926
 31
0.0
 11
-44.58573325431598
 21
243.5432860533448
 31
0.0
  0
SPLINE
  5
245
330
1F
100
AcDbEntity
  8
0
  6
Continuous
 62
     7
100
AcDbSpline
210
0.0
220
0.0
230
1.0
 70
     8
 71
     3
 72
     9
 73
     5
 74
     3
 42
0.000000001
 43
0.0000000001
 44
0.00000001
 40
0.0
 40
0.0
 40
0.0
 40
0.0
 40
0.0316381773673799
 40
0.0668226219399977
 40
0.0668226219399977
 40
0.0668226219399977
 40
0.0668226219399977
 10
-43.90628948699873
 20
243.0250620719997
 30
0.0
 10
-43.91594327481992
 20
243.0208075563261
 30
0.0
 10
-43.93633293409357
 20
243.0118216623811
 30
0.0
 10
-43.95732470634515
 20
243.0043465848778
 30
0.0
 10
-43.9683776114814
 20
243.0004107053137
 30
0.0
 11
-43.90628948699873
 21
243.0250620719997
 31
0.0
 11
-43.93538582919197
 21
243.0126372116985
 31
0.0
 11
-43.9683776114814
 21
243.0004107053137
 31
0.0
  0
SPLINE
  5
246
330
1F
100
AcDbEntity
  8
0
  6
Continuous
 62
     7
100
AcDbSpline
210
0.0
220
0.0
230
1.0
 70
     8
 71
     3
 72
    11
 73
     7
 74
     5
 42
0.000000001
 43
0.0000000001
 44
0.00000001
 40
0.0
 40
0.0
 40
0.0
 40
0.0
 40
0.4569323836676723
 40
0.936507750165912
 40
1.432069492035779
 40
1.93588653123986
 40
1.93588653123986
 40
1.93588653123986
 40
1.93588653123986
 10
-44.84353740708968
 20
243.8250524639068
 30
0.0
 10
-44.98250009272595
 20
243.8879487987357
 30
0.0
 10
-45.26731167398622
 20
244.0168582407892
 30
0.0
 10
-45.72976688398492
 20
244.1415983727406
 30
0.0
 10
-46.21694010710117
 20
244.2242888939458
 30
0.0
 10
-46.55029194961513
 20
244.2343155548179
 30
0.0
 10
-46.71834468593363
 20
244.2393702900008
 30
0.0
 11
-44.84353740708968
 21
243.8250524639068
 31
0.0
 11
-45.2646183447238
 21
244.0024730035809
 31
0.0
 11
-45.72613183346607
 21
244.132848741863
 31
0.0
 11
-46.21524184965905
 21
244.2125534040803
 31
0.0
 11
-46.71834468593363
 21
244.2393702900008
 31
0.0
  0
SPLINE
  5
247
330
1F
100
AcDbEntity
  8
0
  6
Continuous
 62
     7
100
AcDbSpline
210
0.0
220
0.0
230
1.0
 70
     8
 71
     3
 72
     9
 73
     5
 74
     3
 42
0.000000001
 43
0.0000000001
 44
0.00000001
 40
0.0
 40
0.0
 40
0.0
 40
0.0
 40
0.156975501768184
 40
0.3184905039163663
 40
0.3184905039163663
 40
0.3184905039163663
 40
0.3184905039163663
 10
-43.76671132036711
 20
242.7393017678437
 30
0.0
 10
-43.78581843064667
 20
242.7881139889179
 30
0.0
 10
-43.8245852188736
 20
242.8871500003863
 30
0.0
 10
-43.87879716090303
 20
242.9786566312833
 30
0.0
 10
-43.90628948699873
 20
243.0250620719997
 30
0.0
 11
-43.76671132036711
 21
242.7393017678437
 31
0.0
 11
-43.82778466178495
 21
242.8839093585601
 31
0.0
 11
-43.90628948699873
 21
243.0250620719997
 31
0.0
  0
SPLINE
  5
248
330
1F
100
AcDbEntity
  8
0
  6
Continuous
 62
     7
100
AcDbSpline
210
0.0
220
0.0
230
1.0
 70
     8
 71
     3
 72
     9
 73
     5
 74
     3
 42
0.000000001
 43
0.0000000001
 44
0.00000001
 40
0.0
 40
0.0
 40
0.0
 40
0.0
 40
0.1566790244633719
 40
0.3123228330352247
 40
0.3123228330352247
 40
0.3123228330352247
 40
0.3123228330352247
 10
-43.9683776114814
 20
243.0004107053137
 30
0.0
 10
-43.98989646897854
 20
243.048004980243
 30
0.0
 10
-44.03279202182227
 20
243.142879054816
 30
0.0
 10
-44.07967517993103
 20
243.2358471481804
 30
0.0
 10
-44.10303906919091
 20
243.2821771158747
 30
0.0
 11
-43.9683776114814
 21
243.0004107053137
 31
0.0
 11
-44.03393771397933
 21
243.1427138665983
 31
0.0
 11
-44.10303906919091
 21
243.2821771158747
 31
0.0
  0
SPLINE
  5
249
330
1F
100
AcDbEntity
  8
0
  6
Continuous
 62
     7
100
AcDbSpline
210
0.0
220
0.0
230
1.0
 70
     8
 71
     3
 72
     9
 73
     5
 74
     3
 42
0.000000001
 43
0.0000000001
 44
0.00000001
 40
0.0
 40
0.0
 40
0.0
 40
0.0
 40
0.2100483570411173
 40
0.4291422466109116
 40
0.4291422466109116
 40
0.4291422466109116
 40
0.4291422466109116
 10
-44.10303906919091
 20
243.2821771158747
 30
0.0
 10
-44.15178637174429
 20
243.3325721522007
 30
0.0
 10
-44.25138024672264
 20
243.4355324245819
 30
0.0
 10
-44.36469166556798
 20
243.5231865638108
 30
0.0
 10
-44.4225415802008
 20
243.5679374200318
 30
0.0
 11
-44.10303906919091
 21
243.2821771158747
 31
0.0
 11
-44.2525673228394
 21
243.4296952973226
 31
0.0
 11
-44.4225415802008
 21
243.5679374200318
 31
0.0
  0
SPLINE
  5
24A
330
1F
100
AcDbEntity
  8
0
  6
Continuous
 62
     7
100
AcDbSpline
210
0.0
220
0.0
230
1.0
 70
     8
 71
     3
 72
     9
 73
     5
 74
     3
 42
0.000000001
 43
0.0000000001
 44
0.00000001
 40
0.0
 40
0.0
 40
0.0
 40
0.0
 40
0.1925540508111867
 40
0.382009267386232
 40
0.382009267386232
 40
0.382009267386232
 40
0.382009267386232
 10
-44.58573325431598
 20
243.5432860533448
 30
0.0
 10
-44.62743500350921
 20
243.5921055004388
 30
0.0
 10
-44.71016739713862
 20
243.6889587142397
 30
0.0
 10
-44.79932180385758
 20
243.7799338800721
 30
0.0
 10
-44.84353740708968
 20
243.8250524639068
 30
0.0
 11
-44.58573325431598
 21
243.5432860533448
 31
0.0
 11
-44.71247016593323
 21
243.6882509380765
 31
0.0
 11
-44.84353740708968
 21
243.8250524639068
 31
0.0
  0
SPLINE
  5
24B
330
1F
100
AcDbEntity
  8
0
  6
Continuous
 62
     7
100
AcDbSpline
210
0.0
220
0.0
230
1.0
 70
     8
 71
     3
 72
     9
 73
     5
 74
     3
 42
0.000000001
 43
0.0000000001
 44
0.00000001
 40
0.0
 40
0.0
 40
0.0
 40
0.0
 40
0.1447559754981058
 40
0.2893754672790821
 40
0.2893754672790821
 40
0.2893754672790821
 40
0.2893754672790821
 10
-43.70087910387611
 20
242.4575353572818
 30
0.0
 10
-43.71101377979319
 20
242.5047154306693
 30
0.0
 10
-43.7312735956098
 20
242.5990310891008
 30
0.0
 10
-43.75490245381353
 20
242.6925595806979
 30
0.0
 10
-43.76671132036711
 20
242.7393017678437
 30
0.0
 11
-43.70087910387611
 21
242.4575353572818
 31
0.0
 11
-43.73212619668593
 21
242.5988785978982
 31
0.0
 11
-43.76671132036711
 21
242.7393017678437
 31
0.0
  0
SPLINE
  5
24C
330
1F
100
AcDbEntity
  8
0
  6
Continuous
 62
     7
100
AcDbSpline
210
0.0
220
0.0
230
1.0
 70
     8
 71
     3
 72
     9
 73
     5
 74
     3
 42
0.000000001
 43
0.0000000001
 44
0.00000001
 40
0.0
 40
0.0
 40
0.0
 40
0.0
 40
0.008142143877873
 40
0.0162713110389596
 40
0.0162713110389596
 40
0.0162713110389596
 40
0.0162713110389596
 10
-43.70075856211474
 20
242.4737375872267
 30
0.0
 10
-43.70040524826832
 20
242.4710322566473
 30
0.0
 10
-43.69969920351492
 20
242.4656259064041
 30
0.0
 10
-43.70048600631691
 20
242.4602307723902
 30
0.0
 10
-43.70087910387611
 20
242.4575353572818
 30
0.0
 11
-43.70075856211474
 21
242.4737375872267
 31
0.0
 11
-43.70007243784456
 21
242.4656244031813
 31
0.0
 11
-43.70087910387611
 21
242.4575353572818
 31
0.0
  0
SPLINE
  5
24D
330
1F
100
AcDbEntity
  8
0
  6
Continuous
 62
     7
100
AcDbSpline
210
0.0
220
0.0
230
1.0
 70
     8
 71
     3
 72
    13
 73
     9
 74
     7
 42
0.000000001
 43
0.0000000001
 44
0.00000001
 40
0.0
 40
0.0
 40
0.0
 40
0.0
 40
0.7310685737935325
 40
1.437048988014876
 40
2.096337746963801
 40
2.694672033592768
 40
3.229656872548154
 40
3.715378363306641
 40
3.715378363306641
 40
3.715378363306641
 40
3.715378363306641
 10
-56.4679189698287
 20
243.3201169582588
 30
0.0
 10
-56.71188859362183
 20
243.3093828317581
 30
0.0
 10
-57.19145550807181
 20
243.2882829304311
 30
0.0
 10
-57.87387716055952
 20
243.119263546025
 30
0.0
 10
-58.47914193908322
 20
242.8589955628097
 30
0.0
 10
-58.96724998060519
 20
242.5097906979706
 30
0.0
 10
-59.33142857968262
 20
242.0930186608063
 30
0.0
 10
-59.42955206120883
 20
241.7637054746486
 30
0.0
 10
-59.47624588074405
 20
241.6069958612887
 30
0.0
 11
-56.4679189698287
 21
243.3201169582588
 31
0.0
 11
-57.19678330435739
 21
243.2633892446498
 31
0.0
 11
-57.88276531435116
 21
243.0965449282253
 31
0.0
 11
-58.4855046927994
 21
242.8293990681775
 31
0.0
 11
-58.96954054625576
 21
242.4776701740604
 31
0.0
 11
-59.30639323458686
 21
242.0620512967224
 31
0.0
 11
-59.47624588074405
 21
241.6069958612887
 31
0.0
  0
SPLINE
  5
24E
330
1F
100
AcDbEntity
  8
0
  6
Continuous
 62
     7
100
AcDbSpline
210
0.0
220
0.0
230
1.0
 70
     8
 71
     3
 72
     9
 73
     5
 74
     3
 42
0.000000001
 43
0.0000000001
 44
0.00000001
 40
0.0
 40
0.0
 40
0.0
 40
0.0
 40
0.0799892068545167
 40
0.165048220409162
 40
0.165048220409162
 40
0.165048220409162
 40
0.165048220409162
 10
-58.60163291106926
 20
243.5679374200318
 30
0.0
 10
-58.57531757364307
 20
243.5636390689653
 30
0.0
 10
-58.52101899976489
 20
243.5547699522438
 30
0.0
 10
-58.46652512394689
 20
243.5471916078231
 30
0.0
 10
-58.43844123695408
 20
243.5432860533448
 30
0.0
 11
-58.60163291106926
 21
243.5679374200318
 31
0.0
 11
-58.52264102530664
 21
243.55534554926
 31
0.0
 11
-58.43844123695408
 21
243.5432860533448
 31
0.0
  0
SPLINE
  5
24F
330
1F
100
AcDbEntity
  8
0
  6
Continuous
 62
     7
100
AcDbSpline
210
0.0
220
0.0
230
1.0
 70
     8
 71
     3
 72
     9
 73
     5
 74
     3
 42
0.000000001
 43
0.0000000001
 44
0.00000001
 40
0.0
 40
0.0
 40
0.0
 40
0.0
 40
0.1566790244633184
 40
0.3123228330352248
 40
0.3123228330352248
 40
0.3123228330352248
 40
0.3123228330352248
 10
-59.05579687978866
 20
243.0004107053137
 30
0.0
 10
-59.03427802229158
 20
243.048004980243
 30
0.0
 10
-58.99138246944796
 20
243.1428790548161
 30
0.0
 10
-58.9444993113391
 20
243.2358471481804
 30
0.0
 10
-58.92113542207915
 20
243.2821771158747
 30
0.0
 11
-59.05579687978866
 21
243.0004107053137
 31
0.0
 11
-58.99023677729086
 21
243.1427138665983
 31
0.0
 11
-58.92113542207915
 21
243.2821771158747
 31
0.0
  0
SPLINE
  5
250
330
1F
100
AcDbEntity
  8
0
  6
Continuous
 62
     7
100
AcDbSpline
210
0.0
220
0.0
230
1.0
 70
     8
 71
     3
 72
     9
 73
     5
 74
     3
 42
0.000000001
 43
0.0000000001
 44
0.00000001
 40
0.0
 40
0.0
 40
0.0
 40
0.0
 40
0.1447559754980997
 40
0.2893754672790862
 40
0.2893754672790862
 40
0.2893754672790862
 40
0.2893754672790862
 10
-59.32329538739396
 20
242.4575353572818
 30
0.0
 10
-59.31316071147689
 20
242.5047154306693
 30
0.0
 10
-59.29290089566034
 20
242.5990310891009
 30
0.0
 10
-59.26927203745656
 20
242.6925595806979
 30
0.0
 10
-59.25746317090295
 20
242.7393017678437
 30
0.0
 11
-59.32329538739396
 21
242.4575353572818
 31
0.0
 11
-59.29204829458418
 21
242.5988785978982
 31
0.0
 11
-59.25746317090295
 21
242.7393017678437
 31
0.0
  0
SPLINE
  5
251
330
1F
100
AcDbEntity
  8
0
  6
Continuous
 62
     7
100
AcDbSpline
210
0.0
220
0.0
230
1.0
 70
     8
 71
     3
 72
     9
 73
     5
 74
     3
 42
0.000000001
 43
0.0000000001
 44
0.00000001
 40
0.0
 40
0.0
 40
0.0
 40
0.0
 40
0.1569755017681674
 40
0.3184905039163704
 40
0.3184905039163704
 40
0.3184905039163704
 40
0.3184905039163704
 10
-59.25746317090295
 20
242.7393017678437
 30
0.0
 10
-59.23835606062341
 20
242.7881139889179
 30
0.0
 10
-59.19958927239651
 20
242.8871500003863
 30
0.0
 10
-59.14537733036706
 20
242.9786566312833
 30
0.0
 10
-59.11788500427133
 20
243.0250620719997
 30
0.0
 11
-59.25746317090295
 21
242.7393017678437
 31
0.0
 11
-59.19638982948516
 21
242.8839093585601
 31
0.0
 11
-59.11788500427133
 21
243.0250620719997
 31
0.0
  0
SPLINE
  5
252
330
1F
100
AcDbEntity
  8
0
  6
Continuous
 62
     7
100
AcDbSpline
210
0.0
220
0.0
230
1.0
 70
     8
 71
     3
 72
     9
 73
     5
 74
     3
 42
0.000000001
 43
0.0000000001
 44
0.00000001
 40
0.0
 40
0.0
 40
0.0
 40
0.0
 40
0.0316381773672623
 40
0.06682262194
 40
0.06682262194
 40
0.06682262194
 40
0.06682262194
 10
-59.11788500427133
 20
243.0250620719997
 30
0.0
 10
-59.10823121645019
 20
243.020807556326
 30
0.0
 10
-59.08784155717656
 20
243.011821662381
 30
0.0
 10
-59.06684978492495
 20
243.0043465848778
 30
0.0
 10
-59.05579687978866
 20
243.0004107053137
 30
0.0
 11
-59.11788500427133
 21
243.0250620719997
 31
0.0
 11
-59.08878866207822
 21
243.0126372116985
 31
0.0
 11
-59.05579687978866
 21
243.0004107053137
 31
0.0
  0
SPLINE
  5
253
330
1F
100
AcDbEntity
  8
0
  6
Continuous
 62
     7
100
AcDbSpline
210
0.0
220
0.0
230
1.0
 70
     8
 71
     3
 72
    11
 73
     7
 74
     5
 42
0.000000001
 43
0.0000000001
 44
0.00000001
 40
0.0
 40
0.0
 40
0.0
 40
0.0
 40
0.4569323836677509
 40
0.9365077501659564
 40
1.432069492035767
 40
1.935886531239849
 40
1.935886531239849
 40
1.935886531239849
 40
1.935886531239849
 10
-58.18063708418049
 20
243.8250524639068
 30
0.0
 10
-58.04167439854419
 20
243.8879487987358
 30
0.0
 10
-57.7568628172839
 20
244.0168582407891
 30
0.0
 10
-57.29440760728519
 20
244.1415983727406
 30
0.0
 10
-56.80723438416902
 20
244.2242888939459
 30
0.0
 10
-56.47388254165504
 20
244.2343155548178
 30
0.0
 10
-56.30582980533654
 20
244.2393702900008
 30
0.0
 11
-58.18063708418049
 21
243.8250524639068
 31
0.0
 11
-57.75955614654628
 21
244.0024730035809
 31
0.0
 11
-57.29804265780405
 21
244.132848741863
 31
0.0
 11
-56.80893264161112
 21
244.2125534040803
 31
0.0
 11
-56.30582980533654
 21
244.2393702900008
 31
0.0
  0
SPLINE
  5
254
330
1F
100
AcDbEntity
  8
0
  6
Continuous
 62
     7
100
AcDbSpline
210
0.0
220
0.0
230
1.0
 70
     8
 71
     3
 72
     9
 73
     5
 74
     3
 42
0.000000001
 43
0.0000000001
 44
0.00000001
 40
0.0
 40
0.0
 40
0.0
 40
0.0
 40
0.1925540508111774
 40
0.3820092673861587
 40
0.3820092673861587
 40
0.3820092673861587
 40
0.3820092673861587
 10
-58.43844123695408
 20
243.5432860533448
 30
0.0
 10
-58.39673948776085
 20
243.5921055004388
 30
0.0
 10
-58.31400709413147
 20
243.6889587142396
 30
0.0
 10
-58.22485268741255
 20
243.7799338800721
 30
0.0
 10
-58.18063708418049
 20
243.8250524639068
 30
0.0
 11
-58.43844123695408
 21
243.5432860533448
 31
0.0
 11
-58.31170432533685
 21
243.6882509380765
 31
0.0
 11
-58.18063708418049
 21
243.8250524639068
 31
0.0
  0
SPLINE
  5
255
330
1F
100
AcDbEntity
  8
0
  6
Continuous
 62
     7
100
AcDbSpline
210
0.0
220
0.0
230
1.0
 70
     8
 71
     3
 72
     9
 73
     5
 74
     3
 42
0.000000001
 43
0.0000000001
 44
0.00000001
 40
0.0
 40
0.0
 40
0.0
 40
0.0
 40
0.2100483570410566
 40
0.4291422466109225
 40
0.4291422466109225
 40
0.4291422466109225
 40
0.4291422466109225
 10
-58.92113542207915
 20
243.2821771158747
 30
0.0
 10
-58.87238811952579
 20
243.3325721522006
 30
0.0
 10
-58.77279424454749
 20
243.435532424582
 30
0.0
 10
-58.65948282570211
 20
243.5231865638108
 30
0.0
 10
-58.60163291106926
 20
243.5679374200318
 30
0.0
 11
-58.92113542207915
 21
243.2821771158747
 31
0.0
 11
-58.77160716843075
 21
243.4296952973226
 31
0.0
 11
-58.60163291106926
 21
243.5679374200318
 31
0.0
  0
SPLINE
  5
256
330
1F
100
AcDbEntity
  8
0
  6
Continuous
 62
     7
100
AcDbSpline
210
0.0
220
0.0
230
1.0
 70
     8
 71
     3
 72
     9
 73
     5
 74
     3
 42
0.000000001
 43
0.0000000001
 44
0.00000001
 40
0.0
 40
0.0
 40
0.0
 40
0.0
 40
0.008142143877873
 40
0.0162713110389582
 40
0.0162713110389582
 40
0.0162713110389582
 40
0.0162713110389582
 10
-59.32341592915532
 20
242.4737375872267
 30
0.0
 10
-59.32376924300173
 20
242.4710322566473
 30
0.0
 10
-59.32447528775514
 20
242.4656259064041
 30
0.0
 10
-59.32368848495315
 20
242.4602307723901
 30
0.0
 10
-59.32329538739396
 20
242.4575353572818
 30
0.0
 11
-59.32341592915532
 21
242.4737375872267
 31
0.0
 11
-59.3241020534255
 21
242.4656244031813
 31
0.0
 11
-59.32329538739396
 21
242.4575353572818
 31
0.0
  0
SPLINE
  5
257
330
1F
100
AcDbEntity
  8
0
  6
Continuous
 62
     7
100
AcDbSpline
210
0.0
220
0.0
230
1.0
 70
     8
 71
     3
 72
    11
 73
     7
 74
     5
 42
0.000000001
 43
0.0000000001
 44
0.00000001
 40
0.0
 40
0.0
 40
0.0
 40
0.0
 40
0.0847630961059056
 40
0.1552958424802792
 40
0.2305143435904769
 40
0.323750732402175
 40
0.323750732402175
 40
0.323750732402175
 40
0.323750732402175
 10
-35.21208724563508
 20
238.6516676473588
 30
0.0
 10
-35.21368144744619
 20
238.6230918097087
 30
0.0
 10
-35.2166022231729
 20
238.5707375566038
 30
0.0
 10
-35.26023789726972
 20
238.5025752818605
 30
0.0
 10
-35.33532443483922
 20
238.4671345042111
 30
0.0
 10
-35.3917322740759
 20
238.4647249387399
 30
0.0
 10
-35.42295287810839
 20
238.4633913001389
 30
0.0
 11
-35.21208724563508
 21
238.6516676473588
 31
0.0
 11
-35.22475756096433
 21
238.5678568709055
 31
0.0
 11
-35.26361367268169
 21
238.508992014275
 31
0.0
 11
-35.3303576464217
 21
238.4743067819896
 31
0.0
 11
-35.42295287810839
 21
238.4633913001389
 31
0.0
  0
SPLINE
  5
258
330
1F
100
AcDbEntity
  8
0
  6
Continuous
 62
     7
100
AcDbSpline
210
0.0
220
0.0
230
1.0
 70
     8
 71
     3
 72
    11
 73
     7
 74
     5
 42
0.000000001
 43
0.0000000001
 44
0.00000001
 40
0.0
 40
0.0
 40
0.0
 40
0.0
 40
0.0847630961070881
 40
0.1552958424803016
 40
0.2305143435901247
 40
0.3237507324020723
 40
0.3237507324020723
 40
0.3237507324020723
 40
0.3237507324020723
 10
-67.81208724563498
 20
238.6516676473588
 30
0.0
 10
-67.81049304382385
 20
238.6230918097083
 30
0.0
 10
-67.80757226809706
 20
238.5707375566033
 30
0.0
 10
-67.76393659400007
 20
238.5025752818605
 30
0.0
 10
-67.68885005643098
 20
238.4671345042112
 30
0.0
 10
-67.63244221719437
 20
238.4647249387398
 30
0.0
 10
-67.60122161316178
 20
238.4633913001389
 30
0.0
 11
-67.81208724563498
 21
238.6516676473588
 31
0.0
 11
-67.79941693030536
 21
238.5678568709043
 31
0.0
 11
-67.76056081858837
 21
238.508992014275
 31
0.0
 11
-67.69381684484871
 21
238.4743067819898
 31
0.0
 11
-67.60122161316178
 21
238.4633913001389
 31
0.0
  0
SPLINE
  5
259
330
1F
100
AcDbEntity
  8
0
  6
Continuous
 62
     7
100
AcDbSpline
210
0.0
220
0.0
230
1.0
 70
     8
 71
     3
 72
    11
 73
     7
 74
     5
 42
0.000000001
 43
0.0000000001
 44
0.00000001
 40
0.0
 40
0.0
 40
0.0
 40
0.0
 40
0.6678027373297677
 40
1.202689422192933
 40
1.707106273314132
 40
2.224252533075219
 40
2.224252533075219
 40
2.224252533075219
 40
2.224252533075219
 10
-36.29294959422452
 20
231.5440348668338
 30
0.0
 10
-36.43588868132507
 20
231.715340758714
 30
0.0
 10
-36.69331699634534
 20
232.0238566844982
 30
0.0
 10
-37.12945817440252
 20
232.3915196998923
 30
0.0
 10
-37.52327018219689
 20
232.7287920162432
 30
0.0
 10
-37.78140936290799
 20
232.950935510803
 30
0.0
 10
-37.91208724563501
 20
233.0633913001397
 30
0.0
 11
-36.29294959422452
 21
231.5440348668338
 31
0.0
 11
-36.73713358143723
 21
232.0426941517469
 31
0.0
 11
-37.13656385420859
 21
232.3984457856932
 31
0.0
 11
-37.5199674548132
 21
232.7262232082798
 31
0.0
 11
-37.91208724563501
 21
233.0633913001397
 31
0.0
  0
SPLINE
  5
25A
330
1F
100
AcDbEntity
  8
0
  6
Continuous
 62
     7
100
AcDbSpline
210
0.0
220
0.0
230
1.0
 70
     8
 71
     3
 72
    11
 73
     7
 74
     5
 42
0.000000001
 43
0.0000000001
 44
0.00000001
 40
0.0
 40
0.0
 40
0.0
 40
0.0
 40
0.6550836221909104
 40
1.391125113505728
 40
2.157223215802685
 40
2.93647800861037
 40
2.93647800861037
 40
2.93647800861037
 40
2.93647800861037
 10
-36.29294959422452
 20
231.5440348668338
 30
0.0
 10
-36.15272525251461
 20
231.3762217397652
 30
0.0
 10
-35.85494709309974
 20
231.0198564549278
 30
0.0
 10
-35.49935028501177
 20
230.3898825353113
 30
0.0
 10
-35.25730950061825
 20
229.6602990929732
 30
0.0
 10
-35.2272466411906
 20
229.1441876515337
 30
0.0
 10
-35.21208724563508
 20
228.88393491767
 30
0.0
 11
-36.29294959422452
 21
231.5440348668338
 31
0.0
 11
-35.8874585998359
 21
231.0295335484188
 31
0.0
 11
-35.52549221727259
 21
230.3886455571769
 31
0.0
 11
-35.29161001247677
 21
229.6591214523425
 31
0.0
 11
-35.21208724563508
 21
228.88393491767
 31
0.0
  0
SPLINE
  5
25B
330
1F
100
AcDbEntity
  8
0
  6
Continuous
 62
     7
100
AcDbSpline
210
0.0
220
0.0
230
1.0
 70
     8
 71
     3
 72
    11
 73
     7
 74
     5
 42
0.000000001
 43
0.0000000001
 44
0.00000001
 40
0.0
 40
0.0
 40
0.0
 40
0.0
 40
0.0898528749611492
 40
0.2475870098933237
 40
0.4828401523871662
 40
0.7890371610748974
 40
0.7890371610748974
 40
0.7890371610748974
 40
0.7890371610748974
 10
-60.01866644373172
 20
93.90292535915839
 30
0.0
 10
-59.99115837523122
 20
93.88913666382157
 30
0.0
 10
-59.91536069632292
 20
93.85114229549993
 30
0.0
 10
-59.85928440624463
 20
93.68758136035957
 30
0.0
 10
-59.79289302486619
 20
93.46951110414396
 30
0.0
 10
-59.76454756195709
 20
93.29001048377582
 30
0.0
 10
-59.74851783624456
 20
93.18850057853203
 30
0.0
 11
-60.01866644373172
 21
93.90292535915839
 31
0.0
 11
-59.94233816328203
 21
93.85551719910977
 31
0.0
 11
-59.86962843956178
 21
93.71554093323189
 31
0.0
 11
-59.80398433339664
 21
93.48963189811167
 31
0.0
 11
-59.74851783624456
 21
93.18850057853203
 31
0.0
  0
SPLINE
  5
25C
330
1F
100
AcDbEntity
  8
0
  6
Continuous
 62
     7
100
AcDbSpline
210
0.0
220
0.0
230
1.0
 70
     8
 71
     3
 72
    11
 73
     7
 74
     5
 42
0.000000001
 43
0.0000000001
 44
0.00000001
 40
0.0
 40
0.0
 40
0.0
 40
0.0
 40
0.1438238668485793
 40
0.3963409399388197
 40
0.7729667065536864
 40
1.26316033617988
 40
1.26316033617988
 40
1.26316033617988
 40
1.26316033617988
 10
-60.0187695829693
 20
95.10362265495448
 30
0.0
 10
-59.97474205605044
 20
95.08154486629698
 30
0.0
 10
-59.85341372520244
 20
95.02070424293989
 30
0.0
 10
-59.76368459505179
 20
94.7588481849436
 30
0.0
 10
-59.65743043315701
 20
94.40972671983283
 30
0.0
 10
-59.6120766300278
 20
94.12235616633632
 30
0.0
 10
-59.58642867175217
 20
93.95984571015603
 30
0.0
 11
-60.0187695829693
 21
95.10362265495448
 31
0.0
 11
-59.89660516476496
 21
95.02772034250243
 31
0.0
 11
-59.7802360550449
 21
94.8036152218971
 31
0.0
 11
-59.67518272430409
 21
94.44193751258891
 31
0.0
 11
-59.58642867175217
 21
93.95984571015603
 31
0.0
  0
SPLINE
  5
25D
330
1F
100
AcDbEntity
  8
0
  6
Continuous
 62
     7
100
AcDbSpline
210
0.0
220
0.0
230
1.0
 70
     8
 71
     3
 72
    11
 73
     7
 74
     5
 42
0.000000001
 43
0.0000000001
 44
0.00000001
 40
0.0
 40
0.0
 40
0.0
 40
0.0
 40
0.1438238668485853
 40
0.3963409399388487
 40
0.7729667065537134
 40
1.263160336179897
 40
1.263160336179897
 40
1.263160336179897
 40
1.263160336179897
 10
-43.00540490830076
 20
95.10362265495448
 30
0.0
 10
-43.04943243521963
 20
95.08154486629695
 30
0.0
 10
-43.17076076606763
 20
95.02070424293991
 30
0.0
 10
-43.26048989621833
 20
94.75884818494362
 30
0.0
 10
-43.36674405811308
 20
94.40972671983285
 30
0.0
 10
-43.41209786124227
 20
94.12235616633627
 30
0.0
 10
-43.43774581951789
 20
93.95984571015603
 30
0.0
 11
-43.00540490830076
 21
95.10362265495448
 31
0.0
 11
-43.12756932650511
 21
95.02772034250243
 31
0.0
 11
-43.24393843622522
 21
94.8036152218971
 31
0.0
 11
-43.34899176696602
 21
94.44193751258891
 31
0.0
 11
-43.43774581951789
 21
93.95984571015603
 31
0.0
  0
SPLINE
  5
25E
330
1F
100
AcDbEntity
  8
0
  6
Continuous
 62
     7
100
AcDbSpline
210
0.0
220
0.0
230
1.0
 70
     8
 71
     3
 72
    11
 73
     7
 74
     5
 42
0.000000001
 43
0.0000000001
 44
0.00000001
 40
0.0
 40
0.0
 40
0.0
 40
0.0
 40
0.0898528749611854
 40
0.2475870098933402
 40
0.4828401523871827
 40
0.7890371610749138
 40
0.7890371610749138
 40
0.7890371610749138
 40
0.7890371610749138
 10
-43.00550804753834
 20
93.90292535915839
 30
0.0
 10
-43.03301611603885
 20
93.88913666382155
 30
0.0
 10
-43.1088137949472
 20
93.85114229549995
 30
0.0
 10
-43.16489008502539
 20
93.68758136035954
 30
0.0
 10
-43.23128146640388
 20
93.46951110414398
 30
0.0
 10
-43.25962692931294
 20
93.29001048377583
 30
0.0
 10
-43.2756566550255
 20
93.18850057853203
 30
0.0
 11
-43.00550804753834
 21
93.90292535915839
 31
0.0
 11
-43.08183632798807
 21
93.85551719910977
 31
0.0
 11
-43.15454605170828
 21
93.71554093323189
 31
0.0
 11
-43.22019015787342
 21
93.48963189811167
 31
0.0
 11
-43.2756566550255
 21
93.18850057853203
 31
0.0
  0
SPLINE
  5
25F
330
1F
100
AcDbEntity
  8
0
  6
Continuous
 62
     7
100
AcDbSpline
210
0.0
220
0.0
230
1.0
 70
     8
 71
     3
 72
     9
 73
     5
 74
     3
 42
0.000000001
 43
0.0000000001
 44
0.00000001
 40
0.0
 40
0.0
 40
0.0
 40
0.0
 40
0.1828383493297693
 40
0.3684743496100032
 40
0.3684743496100032
 40
0.3684743496100032
 40
0.3684743496100032
 10
-59.25746317090295
 20
91.86571588248896
 30
0.0
 10
-59.23844914053905
 20
91.80772017551261
 30
0.0
 10
-59.20013012317899
 20
91.69084136323633
 30
0.0
 10
-59.1454384659862
 20
91.58066596383392
 30
0.0
 10
-59.11788500427133
 20
91.52516001338924
 30
0.0
 11
-59.25746317090295
 21
91.86571588248896
 31
0.0
 11
-59.19638982948516
 21
91.69337926673573
 31
0.0
 11
-59.11788500427133
 21
91.52516001338924
 31
0.0
  0
SPLINE
  5
260
330
1F
100
AcDbEntity
  8
0
  6
Continuous
 62
     7
100
AcDbSpline
210
0.0
220
0.0
230
1.0
 70
     8
 71
     3
 72
     9
 73
     5
 74
     3
 42
0.000000001
 43
0.0000000001
 44
0.00000001
 40
0.0
 40
0.0
 40
0.0
 40
0.0
 40
0.0336050152813533
 40
0.0703073679527069
 40
0.0703073679527069
 40
0.0703073679527069
 40
0.0703073679527069
 10
-59.32329538739396
 20
91.89036724917511
 30
0.0
 10
-59.31291309759613
 20
91.88615626781396
 30
0.0
 10
-59.29119158651979
 20
91.8773462022466
 30
0.0
 10
-59.2690313952718
 20
91.86970486035476
 30
0.0
 10
-59.25746317090295
 20
91.86571588248896
 30
0.0
 11
-59.32329538739396
 21
91.89036724917511
 31
0.0
 11
-59.29204829458418
 21
91.87800131795541
 31
0.0
 11
-59.25746317090295
 21
91.86571588248896
 31
0.0
  0
SPLINE
  5
261
330
1F
100
AcDbEntity
  8
0
  6
Continuous
 62
     7
100
AcDbSpline
210
0.0
220
0.0
230
1.0
 70
     8
 71
     3
 72
     9
 73
     5
 74
     3
 42
0.000000001
 43
0.0000000001
 44
0.00000001
 40
0.0
 40
0.0
 40
0.0
 40
0.0
 40
0.0927366561267405
 40
0.1851983926326609
 40
0.1851983926326609
 40
0.1851983926326609
 40
0.1851983926326609
 10
-59.32341592915532
 20
92.07555958486986
 30
0.0
 10
-59.32376942127316
 20
92.04464812952055
 30
0.0
 10
-59.32447533757585
 20
91.98291685636548
 30
0.0
 10
-59.32368832134621
 20
91.92118657282673
 30
0.0
 10
-59.32329538739396
 20
91.89036724917511
 30
0.0
 11
-59.32341592915532
 21
92.07555958486986
 31
0.0
 11
-59.3241020534255
 21
91.98282546688729
 31
0.0
 11
-59.32329538739396
 21
91.89036724917511
 31
0.0
  0
SPLINE
  5
262
330
1F
100
AcDbEntity
  8
0
  6
Continuous
 62
     7
100
AcDbSpline
210
0.0
220
0.0
230
1.0
 70
     8
 71
     3
 72
     9
 73
     5
 74
     3
 42
0.000000001
 43
0.0000000001
 44
0.00000001
 40
0.0
 40
0.0
 40
0.0
 40
0.0
 40
0.1828383493297835
 40
0.3684743496099995
 40
0.3684743496099995
 40
0.3684743496099995
 40
0.3684743496099995
 10
-43.76671132036711
 20
91.86571588248896
 30
0.0
 10
-43.78572535073104
 20
91.80772017551263
 30
0.0
 10
-43.82404436809112
 20
91.69084136323632
 30
0.0
 10
-43.87873602528387
 20
91.58066596383397
 30
0.0
 10
-43.90628948699873
 20
91.52516001338924
 30
0.0
 11
-43.76671132036711
 21
91.86571588248896
 31
0.0
 11
-43.82778466178495
 21
91.69337926673573
 31
0.0
 11
-43.90628948699873
 21
91.52516001338924
 31
0.0
  0
SPLINE
  5
263
330
1F
100
AcDbEntity
  8
0
  6
Continuous
 62
     7
100
AcDbSpline
210
0.0
220
0.0
230
1.0
 70
     8
 71
     3
 72
     9
 73
     5
 74
     3
 42
0.000000001
 43
0.0000000001
 44
0.00000001
 40
0.0
 40
0.0
 40
0.0
 40
0.0
 40
0.0667317568667096
 40
0.1369020692889067
 40
0.1369020692889067
 40
0.1369020692889067
 40
0.1369020692889067
 10
-43.9683776114814
 20
91.24339360282838
 30
0.0
 10
-43.99021838027985
 20
91.23917487255538
 30
0.0
 10
-44.03502533320433
 20
91.23052004884741
 30
0.0
 10
-44.07999135364046
 20
91.22273335947897
 30
0.0
 10
-44.10303906919091
 20
91.21874223614131
 30
0.0
 11
-43.9683776114814
 21
91.24339360282838
 31
0.0
 11
-44.03393771397933
 21
91.23094368943174
 31
0.0
 11
-44.10303906919091
 21
91.21874223614131
 31
0.0
  0
SPLINE
  5
264
330
1F
100
AcDbEntity
  8
0
  6
Continuous
 62
     7
100
AcDbSpline
210
0.0
220
0.0
230
1.0
 70
     8
 71
     3
 72
     9
 73
     5
 74
     3
 42
0.000000001
 43
0.0000000001
 44
0.00000001
 40
0.0
 40
0.0
 40
0.0
 40
0.0
 40
0.0667317568665839
 40
0.1369020692889
 40
0.1369020692889
 40
0.1369020692889
 40
0.1369020692889
 10
-59.05579687978866
 20
91.24339360282838
 30
0.0
 10
-59.03395611099024
 20
91.23917487255537
 30
0.0
 10
-58.98914915806577
 20
91.23052004884741
 30
0.0
 10
-58.94418313762967
 20
91.22273335947892
 30
0.0
 10
-58.92113542207915
 20
91.21874223614131
 30
0.0
 11
-59.05579687978866
 21
91.24339360282838
 31
0.0
 11
-58.99023677729086
 21
91.23094368943174
 31
0.0
 11
-58.92113542207915
 21
91.21874223614131
 31
0.0
  0
SPLINE
  5
265
330
1F
100
AcDbEntity
  8
0
  6
Continuous
 62
     7
100
AcDbSpline
210
0.0
220
0.0
230
1.0
 70
     8
 71
     3
 72
     9
 73
     5
 74
     3
 42
0.000000001
 43
0.0000000001
 44
0.00000001
 40
0.0
 40
0.0
 40
0.0
 40
0.0
 40
0.1449667873988048
 40
0.288557909830862
 40
0.288557909830862
 40
0.288557909830862
 40
0.288557909830862
 10
-59.11788500427133
 20
91.52516001338924
 30
0.0
 10
-59.10853885634243
 20
91.4777433490905
 30
0.0
 10
-59.08993523136655
 20
91.38335998595218
 30
0.0
 10
-59.06714011245696
 20
91.2899005435269
 30
0.0
 10
-59.05579687978866
 20
91.24339360282838
 30
0.0
 11
-59.11788500427133
 21
91.52516001338924
 31
0.0
 11
-59.08878866207822
 21
91.3831432102889
 31
0.0
 11
-59.05579687978866
 21
91.24339360282838
 31
0.0
  0
SPLINE
  5
266
330
1F
100
AcDbEntity
  8
0
  6
Continuous
 62
     7
100
AcDbSpline
210
0.0
220
0.0
230
1.0
 70
     8
 71
     3
 72
     9
 73
     5
 74
     3
 42
0.000000001
 43
0.0000000001
 44
0.00000001
 40
0.0
 40
0.0
 40
0.0
 40
0.0
 40
0.0927366561267405
 40
0.185198392632661
 40
0.185198392632661
 40
0.185198392632661
 40
0.185198392632661
 10
-43.70075856211474
 20
92.07555958486986
 30
0.0
 10
-43.70040506999688
 20
92.04464812952055
 30
0.0
 10
-43.69969915369423
 20
91.9829168563655
 30
0.0
 10
-43.70048616992386
 20
91.9211865728267
 30
0.0
 10
-43.70087910387611
 20
91.89036724917511
 30
0.0
 11
-43.70075856211474
 21
92.07555958486986
 31
0.0
 11
-43.70007243784456
 21
91.98282546688729
 31
0.0
 11
-43.70087910387611
 21
91.89036724917511
 31
0.0
  0
SPLINE
  5
267
330
1F
100
AcDbEntity
  8
0
  6
Continuous
 62
     7
100
AcDbSpline
210
0.0
220
0.0
230
1.0
 70
     8
 71
     3
 72
     9
 73
     5
 74
     3
 42
0.000000001
 43
0.0000000001
 44
0.00000001
 40
0.0
 40
0.0
 40
0.0
 40
0.0
 40
0.2307947354504526
 40
0.4675097338613348
 40
0.4675097338613348
 40
0.4675097338613348
 40
0.4675097338613348
 10
-58.92113542207915
 20
91.21874223614131
 30
0.0
 10
-58.87262515843557
 20
91.15889187600008
 30
0.0
 10
-58.77436024853623
 20
91.03765590924358
 30
0.0
 10
-58.65969272196728
 20
90.93178975156896
 30
0.0
 10
-58.60163291106926
 20
90.87818636704102
 30
0.0
 11
-58.92113542207915
 21
91.21874223614131
 31
0.0
 11
-58.77160716843075
 21
91.0429369134277
 31
0.0
 11
-58.60163291106926
 21
90.87818636704102
 31
0.0
  0
SPLINE
  5
268
330
1F
100
AcDbEntity
  8
0
  6
Continuous
 62
     7
100
AcDbSpline
210
0.0
220
0.0
230
1.0
 70
     8
 71
     3
 72
    13
 73
     9
 74
     7
 42
0.000000001
 43
0.0000000001
 44
0.00000001
 40
0.0
 40
0.0
 40
0.0
 40
0.0
 40
0.7319929772551476
 40
1.446211147506927
 40
2.127867593943908
 40
2.768178214706186
 40
3.367183193934596
 40
3.935473909861485
 40
3.935473909861485
 40
3.935473909861485
 40
3.935473909861485
 10
-56.4679189698287
 20
89.30665870044649
 30
0.0
 10
-56.71229371965337
 20
89.31955069511106
 30
0.0
 10
-57.19510912548084
 20
89.3450216454327
 30
0.0
 10
-57.88102849512775
 20
89.54864904785238
 30
0.0
 10
-58.48858726528969
 20
89.86238687987571
 30
0.0
 10
-58.97749775655551
 20
90.28252144259328
 30
0.0
 10
-59.33663671294346
 20
90.78218076386574
 30
0.0
 10
-59.43053303943904
 20
91.16291755812291
 30
0.0
 10
-59.47624588074405
 20
91.34827692230849
 30
0.0
 11
-56.4679189698287
 21
89.30665870044649
 31
0.0
 11
-57.19678330435739
 21
89.37426415693953
 31
0.0
 11
-57.88276531435116
 21
89.5731014704422
 31
0.0
 11
-58.4855046927994
 21
89.89147350890077
 31
0.0
 11
-58.96954054625576
 21
90.31064768208373
 31
0.0
 11
-59.30639323458686
 21
90.80596297230105
 31
0.0
 11
-59.47624588074405
 21
91.34827692230849
 31
0.0
  0
SPLINE
  5
269
330
1F
100
AcDbEntity
  8
0
  6
Continuous
 62
     7
100
AcDbSpline
210
0.0
220
0.0
230
1.0
 70
     8
 71
     3
 72
    11
 73
     7
 74
     5
 42
0.000000001
 43
0.0000000001
 44
0.00000001
 40
0.0
 40
0.0
 40
0.0
 40
0.0
 40
0.0660016497039608
 40
0.1355991681526916
 40
0.2099862095190637
 40
0.2875815016977737
 40
0.2875815016977737
 40
0.2875815016977737
 40
0.2875815016977737
 10
-36.41208724563501
 20
97.24807368989886
 30
0.0
 10
-36.41524052335453
 20
97.27025831517551
 30
0.0
 10
-36.42171888795122
 20
97.31583621374585
 30
0.0
 10
-36.46943227202543
 20
97.37117328738017
 30
0.0
 10
-36.53507335067238
 20
97.40868074643015
 30
0.0
 10
-36.58605720078777
 20
97.41345573206752
 30
0.0
 10
-36.61208724563505
 20
97.4158936161343
 30
0.0
 11
-36.41208724563501
 21
97.24807368989886
 31
0.0
 11
-36.42731190094298
 21
97.31229540002353
 31
0.0
 11
-36.47066588939776
 21
97.36674029775818
 31
0.0
 11
-36.53555079187147
 21
97.40311861348059
 31
0.0
 11
-36.61208724563505
 21
97.4158936161343
 31
0.0
  0
SPLINE
  5
26A
330
1F
100
AcDbEntity
  8
0
  6
Continuous
 62
     7
100
AcDbSpline
210
0.0
220
0.0
230
1.0
 70
     8
 71
     3
 72
    19
 73
    15
 74
    13
 42
0.000000001
 43
0.0000000001
 44
0.00000001
 40
0.0
 40
0.0
 40
0.0
 40
0.0
 40
0.0225228326691519
 40
0.0448080055050743
 40
0.0664045602391991
 40
0.0873326867500516
 40
0.1243424723908844
 40
0.1484745382036729
 40
0.1683625972487941
 40
0.1827481204877056
 40
0.1970586251917278
 40
0.209908113575791
 40
0.2230983580873979
 40
0.2353691074657558
 40
0.2353691074657558
 40
0.2353691074657558
 40
0.2353691074657558
 10
-36.61208724563505
 20
100.4824305933199
 30
0.0
 10
-36.60457876306138
 20
100.4823190044257
 30
0.0
 10
-36.58964102710497
 20
100.482097003268
 30
0.0
 10
-36.56756319237828
 20
100.4803125720034
 30
0.0
 10
-36.54613295419635
 20
100.4775089684104
 30
0.0
 10
-36.5200712626179
 20
100.4725934488005
 30
0.0
 10
-36.49362274328374
 20
100.4653127163396
 30
0.0
 10
-36.46852986125237
 20
100.4551999167024
 30
0.0
 10
-36.45132345201945
 20
100.4459910921325
 30
0.0
 10
-36.43799007484652
 20
100.4367553836183
 30
0.0
 10
-36.42762444385426
 20
100.4274725037434
 30
0.0
 10
-36.41924084386905
 20
100.4169197373303
 30
0.0
 10
-36.41329316780543
 20
100.4053253158131
 30
0.0
 10
-36.41247942028046
 20
100.3968114413833
 30
0.0
 10
-36.41208724563501
 20
100.3927082372174
 30
0.0
 11
-36.61208724563505
 21
100.4824305933199
 31
0.0
 11
-36.58957196706413
 21
100.481847693679
 31
0.0
 11
-36.56735475476069
 21
100.4801086098282
 31
0.0
 11
-36.54594468238326
 21
100.4772766527936
 31
0.0
 11
-36.52538177551253
 21
100.4733839236098
 31
0.0
 11
-36.4897548040272
 21
100.4633617917965
 31
0.0
 11
-36.46741501053373
 21
100.454235444431
 31
0.0
 11
-36.44993509211847
 21
100.4447492791664
 31
0.0
 11
-36.43814934304157
 21
100.4365006801531
 31
0.0
 11
-36.4275745784599
 21
100.4268588505358
 31
0.0
 11
-36.41964467306593
 21
100.4167481672102
 31
0.0
 11
-36.41399288249431
 21
100.4048301206167
 31
0.0
 11
-36.41208724563501
 21
100.3927082372174
 31
0.0
  0
SPLINE
  5
26B
330
1F
100
AcDbEntity
  8
0
  6
Continuous
 62
     7
100
AcDbSpline
210
0.0
220
0.0
230
1.0
 70
     8
 71
     3
 72
    11
 73
     7
 74
     5
 42
0.000000001
 43
0.0000000001
 44
0.00000001
 40
0.0
 40
0.0
 40
0.0
 40
0.0
 40
0.0301632022180611
 40
0.0603125773239334
 40
0.1306102295909474
 40
0.2002316615223015
 40
0.2002316615223015
 40
0.2002316615223015
 40
0.2002316615223015
 10
-36.61208724563505
 20
101.1083725498158
 30
0.0
 10
-36.60203271953849
 20
101.1083361529165
 30
0.0
 10
-36.58192827653859
 20
101.1082633612131
 30
0.0
 10
-36.53839948880785
 20
101.1073964440083
 30
0.0
 10
-36.48173761647195
 20
101.1052421622259
 30
0.0
 10
-36.43522911131986
 20
101.1017013443322
 30
0.0
 10
-36.41208724563501
 20
101.0999394837273
 30
0.0
 11
-36.61208724563505
 21
101.1083725498158
 31
0.0
 11
-36.58192464872184
 21
101.1081814346628
 31
0.0
 11
-36.55178072019953
 21
101.1076083704678
 31
0.0
 11
-36.48153969927307
 21
101.104787212056
 31
0.0
 11
-36.41208724563501
 21
101.0999394837273
 31
0.0
  0
SPLINE
  5
26C
330
1F
100
AcDbEntity
  8
0
  6
Continuous
 62
     7
100
AcDbSpline
210
0.0
220
0.0
230
1.0
 70
     8
 71
     3
 72
    11
 73
     7
 74
     5
 42
0.000000001
 43
0.0000000001
 44
0.00000001
 40
0.0
 40
0.0
 40
0.0
 40
0.0
 40
0.2884188442151533
 40
0.5874422110490367
 40
0.8946927008310286
 40
1.206411493848941
 40
1.206411493848941
 40
1.206411493848941
 40
1.206411493848941
 10
-37.70361706461233
 20
97.85501370841436
 30
0.0
 10
-37.63232327649857
 20
97.78990415497161
 30
0.0
 10
-37.48711437602043
 20
97.65729112549883
 30
0.0
 10
-37.21785511331579
 20
97.5222745589625
 30
0.0
 10
-36.92294112846371
 20
97.43248470430775
 30
0.0
 10
-36.7162026847169
 20
97.42145052560598
 30
0.0
 10
-36.61208724563505
 20
97.4158936161343
 30
0.0
 11
-37.70361706461233
 21
97.85501370841436
 31
0.0
 11
-37.48212248673232
 21
97.67028260003359
 31
0.0
 11
-37.21733600712787
 21
97.53134701981654
 31
0.0
 11
-36.92243283709303
 21
97.44512066095979
 31
0.0
 11
-36.61208724563505
 21
97.4158936161343
 31
0.0
  0
SPLINE
  5
26D
330
1F
100
AcDbEntity
  8
0
  6
Continuous
 62
     7
100
AcDbSpline
210
0.0
220
0.0
230
1.0
 70
     8
 71
     3
 72
    19
 73
    15
 74
    13
 42
0.000000001
 43
0.0000000001
 44
0.00000001
 40
0.0
 40
0.0
 40
0.0
 40
0.0
 40
0.0263864335702897
 40
0.052490618745383
 40
0.0713225755863232
 40
0.0934405654361547
 40
0.1246109963270543
 40
0.1537177062684087
 40
0.1749840485645913
 40
0.1911109290674415
 40
0.2091790158781538
 40
0.2231340317790244
 40
0.237635254152865
 40
0.2554341513973903
 40
0.2554341513973903
 40
0.2554341513973903
 40
0.2554341513973903
 10
-36.61208724563505
 20
101.1083725498158
 30
0.0
 10
-36.62088486917053
 20
101.108568698279
 30
0.0
 10
-36.63838601005319
 20
101.1089589069846
 30
0.0
 10
-36.66202391741663
 20
101.1118463105942
 30
0.0
 10
-36.68399482322904
 20
101.1160027811173
 30
0.0
 10
-36.70726839414483
 20
101.1221183960866
 30
0.0
 10
-36.73308772214824
 20
101.1316943123333
 30
0.0
 10
-36.75715714105879
 20
101.1445374301412
 30
0.0
 10
-36.77507768423891
 20
101.1577057520812
 30
0.0
 10
-36.78843035578315
 20
101.1705493863372
 30
0.0
 10
-36.79834865487188
 20
101.1832836043048
 30
0.0
 10
-36.80572020660173
 20
101.1969689284083
 30
0.0
 10
-36.81093507833489
 20
101.211630685243
 30
0.0
 10
-36.81167791453161
 20
101.2224234301174
 30
0.0
 10
-36.81208724563498
 20
101.2283707452188
 30
0.0
 11
-36.61208724563505
 21
101.1083725498158
 31
0.0
 11
-36.63845368441243
 21
101.1093993770144
 31
0.0
 11
-36.66437702113831
 21
101.1124667932073
 31
0.0
 11
-36.68287520526798
 21
101.1159966341946
 31
0.0
 11
-36.70426133481249
 21
101.1216392344663
 31
0.0
 11
-36.73344124686692
 21
101.1325995491807
 31
0.0
 11
-36.7590393168166
 21
101.1464537681477
 31
0.0
 11
-36.77611524438846
 21
101.1591293358136
 31
0.0
 11
-36.78769855018265
 21
101.1703500000543
 31
0.0
 11
-36.79871122699599
 21
101.1846739914684
 31
0.0
 11
-36.80532088743053
 21
101.1969644308983
 31
0.0
 11
-36.80997903785867
 21
101.2106971370388
 31
0.0
 11
-36.81208724563498
 21
101.2283707452188
 31
0.0
  0
SPLINE
  5
26E
330
1F
100
AcDbEntity
  8
0
  6
Continuous
 62
     7
100
AcDbSpline
210
0.0
220
0.0
230
1.0
 70
     8
 71
     3
 72
    24
 73
    20
 74
    18
 42
0.000000001
 43
0.0000000001
 44
0.00000001
 40
0.0
 40
0.0
 40
0.0
 40
0.0
 40
0.0170883832214279
 40
0.0341754088710113
 40
0.1711774963736845
 40
0.3380032123234601
 40
0.4998483875402097
 40
0.6264553415195067
 40
0.7421049818379352
 40
0.8545624579356144
 40
0.9537935685256062
 40
1.058756677128856
 40
1.194281311568044
 40
1.30130291481872
 40
1.399287655984227
 40
1.507449556943741
 40
1.595398467391607
 40
1.673058126167907
 40
1.740902638315694
 40
1.740902638315694
 40
1.740902638315694
 40
1.740902638315694
 10
-36.61208724563505
 20
100.4824305933199
 30
0.0
 10
-36.617783387527
 20
100.4824398682926
 30
0.0
 10
-36.62917521876498
 20
100.4824584238417
 30
0.0
 10
-36.68623233493802
 20
100.4829519542968
 30
0.0
 10
-36.79318349991159
 20
100.4865318026561
 30
0.0
 10
-36.94793904369143
 20
100.4996350775847
 30
0.0
 10
-37.09823836092156
 20
100.5213340348482
 30
0.0
 10
-37.23027767337563
 20
100.5483018581112
 30
0.0
 10
-37.34470407188589
 20
100.5783249508825
 30
0.0
 10
-37.44848252479503
 20
100.6122611647311
 30
0.0
 10
-37.54655390210522
 20
100.6514921981777
 30
0.0
 10
-37.64845404507923
 20
100.7011295466737
 30
0.0
 10
-37.74714276244377
 20
100.7624620526275
 30
0.0
 10
-37.83489302756476
 20
100.8349979390742
 30
0.0
 10
-37.90542562670915
 20
100.9124290529146
 30
0.0
 10
-37.95860890348811
 20
100.9955989038506
 30
0.0
 10
-37.99240000672121
 20
101.0807909868406
 30
0.0
 10
-38.00939062262989
 20
101.1572011801457
 30
0.0
 10
-38.01122972824088
 20
101.2057389463107
 30
0.0
 10
-38.01208724563503
 20
101.2283707452188
 30
0.0
 11
-36.61208724563505
 21
100.4824305933199
 31
0.0
 11
-36.62917555278251
 21
100.4824784164428
 31
0.0
 11
-36.64626197545579
 21
100.4826218926209
 31
0.0
 11
-36.78318592660907
 21
100.4872482881416
 31
0.0
 11
-36.9494079045262
 21
100.5014283290448
 31
0.0
 11
-37.10956459154058
 21
100.524745626119
 31
0.0
 11
-37.23358268909249
 21
100.5502178123603
 31
0.0
 11
-37.34540837692916
 21
100.5797111139916
 31
0.0
 11
-37.45223823863319
 21
100.6148403692177
 31
0.0
 11
-37.54430798919267
 21
100.6518535335649
 31
0.0
 11
-37.63855555291013
 21
100.6980558158994
 31
0.0
 11
-37.75324555442769
 21
100.7702578247091
 31
0.0
 11
-37.83540795409385
 21
100.838835981827
 31
0.0
 11
-37.9010662744849
 21
100.9115683299463
 31
0.0
 11
-37.95883946691606
 21
101.0030082287737
 31
0.0
 11
-37.99130435256107
 21
101.0847458713627
 31
0.0
 11
-38.00761221895571
 21
101.1606739735592
 31
0.0
 11
-38.01208724563503
 21
101.2283707452188
 31
0.0
  0
SPLINE
  5
26F
330
1F
100
AcDbEntity
  8
0
  6
Continuous
 62
     7
100
AcDbSpline
210
0.0
220
0.0
230
1.0
 70
     8
 71
     3
 72
    11
 73
     7
 74
     5
 42
0.000000001
 43
0.0000000001
 44
0.00000001
 40
0.0
 40
0.0
 40
0.0
 40
0.0
 40
0.471186471487894
 40
0.9581529220163896
 40
1.456401240728979
 40
1.960518140675629
 40
1.960518140675629
 40
1.960518140675629
 40
1.960518140675629
 10
-58.18063708418049
 20
90.5717685897931
 30
0.0
 10
-58.04218886246006
 20
90.49697712077274
 30
0.0
 10
-57.76065579785756
 20
90.34488943881132
 30
0.0
 10
-57.29666842701953
 20
90.19500232108174
 30
0.0
 10
-56.80845336078919
 20
90.09610222678248
 30
0.0
 10
-56.47402365645418
 20
90.08406012641557
 30
0.0
 10
-56.30582980533654
 20
90.0780038320705
 30
0.0
 11
-58.18063708418049
 21
90.5717685897931
 31
0.0
 11
-57.75955614654628
 21
90.36032702423682
 31
0.0
 11
-57.29804265780405
 21
90.20495126975229
 31
0.0
 11
-56.80893264161112
 21
90.10996295220845
 31
0.0
 11
-56.30582980533654
 21
90.0780038320705
 31
0.0
  0
SPLINE
  5
270
330
1F
100
AcDbEntity
  8
0
  6
Continuous
 62
     7
100
AcDbSpline
210
0.0
220
0.0
230
1.0
 70
     8
 71
     3
 72
     9
 73
     5
 74
     3
 42
0.000000001
 43
0.0000000001
 44
0.00000001
 40
0.0
 40
0.0
 40
0.0
 40
0.0
 40
0.1641777603965274
 40
0.3257006823877928
 40
0.3257006823877928
 40
0.3257006823877928
 40
0.3257006823877928
 10
-58.60163291106926
 20
90.87818636704102
 30
0.0
 10
-58.57585607970624
 20
90.8298902352929
 30
0.0
 10
-58.52471922412377
 20
90.73407895478778
 30
0.0
 10
-58.46704386466065
 20
90.64205625528301
 30
0.0
 10
-58.43844123695408
 20
90.59641995648005
 30
0.0
 11
-58.60163291106926
 21
90.87818636704102
 31
0.0
 11
-58.52264102530664
 21
90.73426062553288
 31
0.0
 11
-58.43844123695408
 21
90.59641995648005
 31
0.0
  0
SPLINE
  5
271
330
1F
100
AcDbEntity
  8
0
  6
Continuous
 62
     7
100
AcDbSpline
210
0.0
220
0.0
230
1.0
 70
     8
 71
     3
 72
     9
 73
     5
 74
     3
 42
0.000000001
 43
0.0000000001
 44
0.00000001
 40
0.0
 40
0.0
 40
0.0
 40
0.0
 40
0.127369924887358
 40
0.2589824951984465
 40
0.2589824951984465
 40
0.2589824951984465
 40
0.2589824951984465
 10
-58.43844123695408
 20
90.59641995648005
 30
0.0
 10
-58.39620422800061
 20
90.59210219526346
 30
0.0
 10
-58.31032330888601
 20
90.58332286969949
 30
0.0
 10
-58.22433537716962
 20
90.5756618439312
 30
0.0
 10
-58.18063708418049
 20
90.5717685897931
 30
0.0
 11
-58.43844123695408
 21
90.59641995648005
 31
0.0
 11
-58.31170432533685
 21
90.58373717245645
 31
0.0
 11
-58.18063708418049
 21
90.5717685897931
 31
0.0
  0
SPLINE
  5
272
330
1F
100
AcDbEntity
  8
0
  6
Continuous
 62
     7
100
AcDbSpline
210
0.0
220
0.0
230
1.0
 70
     8
 71
     3
 72
     9
 73
     5
 74
     3
 42
0.000000001
 43
0.0000000001
 44
0.00000001
 40
0.0
 40
0.0
 40
0.0
 40
0.0
 40
0.1273699248873721
 40
0.2589824951985527
 40
0.2589824951985527
 40
0.2589824951985527
 40
0.2589824951985527
 10
-44.58573325431598
 20
90.59641995648005
 30
0.0
 10
-44.62797026326945
 20
90.59210219526344
 30
0.0
 10
-44.7138511823841
 20
90.58332286969954
 30
0.0
 10
-44.79983911410053
 20
90.57566184393117
 30
0.0
 10
-44.84353740708968
 20
90.5717685897931
 30
0.0
 11
-44.58573325431598
 21
90.59641995648005
 31
0.0
 11
-44.71247016593323
 21
90.58373717245645
 31
0.0
 11
-44.84353740708968
 21
90.5717685897931
 31
0.0
  0
SPLINE
  5
273
330
1F
100
AcDbEntity
  8
0
  6
Continuous
 62
     7
100
AcDbSpline
210
0.0
220
0.0
230
1.0
 70
     8
 71
     3
 72
     9
 73
     5
 74
     3
 42
0.000000001
 43
0.0000000001
 44
0.00000001
 40
0.0
 40
0.0
 40
0.0
 40
0.0
 40
0.0336050152813797
 40
0.0703073679526932
 40
0.0703073679526932
 40
0.0703073679526932
 40
0.0703073679526932
 10
-43.70087910387611
 20
91.89036724917511
 30
0.0
 10
-43.71126139367394
 20
91.88615626781396
 30
0.0
 10
-43.7329829047503
 20
91.87734620224666
 30
0.0
 10
-43.75514309599829
 20
91.86970486035473
 30
0.0
 10
-43.76671132036711
 20
91.86571588248896
 30
0.0
 11
-43.70087910387611
 21
91.89036724917511
 31
0.0
 11
-43.73212619668593
 21
91.87800131795541
 31
0.0
 11
-43.76671132036711
 21
91.86571588248896
 31
0.0
  0
SPLINE
  5
274
330
1F
100
AcDbEntity
  8
0
  6
Continuous
 62
     7
100
AcDbSpline
210
0.0
220
0.0
230
1.0
 70
     8
 71
     3
 72
     9
 73
     5
 74
     3
 42
0.000000001
 43
0.0000000001
 44
0.00000001
 40
0.0
 40
0.0
 40
0.0
 40
0.0
 40
0.1641777603965274
 40
0.3257006823877928
 40
0.3257006823877928
 40
0.3257006823877928
 40
0.3257006823877928
 10
-44.4225415802008
 20
90.87818636704102
 30
0.0
 10
-44.44831841156382
 20
90.8298902352929
 30
0.0
 10
-44.49945526714629
 20
90.73407895478778
 30
0.0
 10
-44.55713062660941
 20
90.64205625528301
 30
0.0
 10
-44.58573325431598
 20
90.59641995648005
 30
0.0
 11
-44.4225415802008
 21
90.87818636704102
 31
0.0
 11
-44.50153346596342
 21
90.73426062553288
 31
0.0
 11
-44.58573325431598
 21
90.59641995648005
 31
0.0
  0
SPLINE
  5
275
330
1F
100
AcDbEntity
  8
0
  6
Continuous
 62
     7
100
AcDbSpline
210
0.0
220
0.0
230
1.0
 70
     8
 71
     3
 72
     9
 73
     5
 74
     3
 42
0.000000001
 43
0.0000000001
 44
0.00000001
 40
0.0
 40
0.0
 40
0.0
 40
0.0
 40
0.1449667873988305
 40
0.2885579098308583
 40
0.2885579098308583
 40
0.2885579098308583
 40
0.2885579098308583
 10
-43.90628948699873
 20
91.52516001338924
 30
0.0
 10
-43.91563563492769
 20
91.4777433490905
 30
0.0
 10
-43.93423925990373
 20
91.38335998595221
 30
0.0
 10
-43.95703437881314
 20
91.28990054352688
 30
0.0
 10
-43.9683776114814
 20
91.24339360282838
 30
0.0
 11
-43.90628948699873
 21
91.52516001338924
 31
0.0
 11
-43.93538582919197
 21
91.3831432102889
 31
0.0
 11
-43.9683776114814
 21
91.24339360282838
 31
0.0
  0
SPLINE
  5
276
330
1F
100
AcDbEntity
  8
0
  6
Continuous
 62
     7
100
AcDbSpline
210
0.0
220
0.0
230
1.0
 70
     8
 71
     3
 72
     9
 73
     5
 74
     3
 42
0.000000001
 43
0.0000000001
 44
0.00000001
 40
0.0
 40
0.0
 40
0.0
 40
0.0
 40
0.2307947354505079
 40
0.4675097338613237
 40
0.4675097338613237
 40
0.4675097338613237
 40
0.4675097338613237
 10
-44.10303906919091
 20
91.21874223614131
 30
0.0
 10
-44.15154933283451
 20
91.15889187600008
 30
0.0
 10
-44.24981424273392
 20
91.03765590924363
 30
0.0
 10
-44.36448176930283
 20
90.93178975156897
 30
0.0
 10
-44.4225415802008
 20
90.87818636704102
 30
0.0
 11
-44.10303906919091
 21
91.21874223614131
 31
0.0
 11
-44.2525673228394
 21
91.0429369134277
 31
0.0
 11
-44.4225415802008
 21
90.87818636704102
 31
0.0
  0
SPLINE
  5
277
330
1F
100
AcDbEntity
  8
0
  6
Continuous
 62
     7
100
AcDbSpline
210
0.0
220
0.0
230
1.0
 70
     8
 71
     3
 72
    11
 73
     7
 74
     5
 42
0.000000001
 43
0.0000000001
 44
0.00000001
 40
0.0
 40
0.0
 40
0.0
 40
0.0
 40
0.4711864714878178
 40
0.958152922016347
 40
1.456401240728992
 40
1.960518140675642
 40
1.960518140675642
 40
1.960518140675642
 40
1.960518140675642
 10
-44.84353740708968
 20
90.5717685897931
 30
0.0
 10
-44.98198562881007
 20
90.49697712077273
 30
0.0
 10
-45.26351869341255
 20
90.34488943881131
 30
0.0
 10
-45.7275060642506
 20
90.19500232108169
 30
0.0
 10
-46.21572113048098
 20
90.09610222678248
 30
0.0
 10
-46.550150834816
 20
90.0840601264156
 30
0.0
 10
-46.71834468593363
 20
90.0780038320705
 30
0.0
 11
-44.84353740708968
 21
90.5717685897931
 31
0.0
 11
-45.2646183447238
 21
90.36032702423682
 31
0.0
 11
-45.72613183346607
 21
90.20495126975229
 31
0.0
 11
-46.21524184965905
 21
90.10996295220845
 31
0.0
 11
-46.71834468593363
 21
90.0780038320705
 31
0.0
  0
SPLINE
  5
278
330
1F
100
AcDbEntity
  8
0
  6
Continuous
 62
     7
100
AcDbSpline
210
0.0
220
0.0
230
1.0
 70
     8
 71
     3
 72
    13
 73
     9
 74
     7
 42
0.000000001
 43
0.0000000001
 44
0.00000001
 40
0.0
 40
0.0
 40
0.0
 40
0.0
 40
0.7319929772551406
 40
1.446211147506926
 40
2.127867593943902
 40
2.768178214706184
 40
3.367183193934594
 40
3.935473909861483
 40
3.935473909861483
 40
3.935473909861483
 40
3.935473909861483
 10
-46.55625552144136
 20
89.30665870044649
 30
0.0
 10
-46.31188077161673
 20
89.31955069511106
 30
0.0
 10
-45.82906536578918
 20
89.34502164543272
 30
0.0
 10
-45.14314599614232
 20
89.54864904785234
 30
0.0
 10
-44.53558722598039
 20
89.86238687987571
 30
0.0
 10
-44.04667673471454
 20
90.28252144259326
 30
0.0
 10
-43.68753777832661
 20
90.78218076386571
 30
0.0
 10
-43.59364145183101
 20
91.16291755812291
 30
0.0
 10
-43.54792861052601
 20
91.34827692230849
 30
0.0
 11
-46.55625552144136
 21
89.30665870044649
 31
0.0
 11
-45.82739118691268
 21
89.37426415693953
 31
0.0
 11
-45.1414091769189
 21
89.5731014704422
 31
0.0
 11
-44.53866979847067
 21
89.89147350890077
 31
0.0
 11
-44.0546339450143
 21
90.31064768208373
 31
0.0
 11
-43.7177812566832
 21
90.80596297230105
 31
0.0
 11
-43.54792861052601
 21
91.34827692230849
 31
0.0
  0
SPLINE
  5
279
330
1F
100
AcDbEntity
  8
0
  6
Continuous
 62
     7
100
AcDbSpline
210
0.0
220
0.0
230
1.0
 70
     8
 71
     3
 72
    23
 73
    19
 74
    17
 42
0.000000001
 43
0.0000000001
 44
0.00000001
 40
0.0
 40
0.0
 40
0.0
 40
0.0
 40
0.0170891031206883
 40
0.034175408843186
 40
0.2041316788774284
 40
0.3380034500133048
 40
0.4998486252277558
 40
0.6264555792029918
 40
0.7520419470607271
 40
0.8545625380270627
 40
0.9537936485935494
 40
1.058756757164279
 40
1.176022361258956
 40
1.301297045292368
 40
1.399281786061155
 40
1.507443685876728
 40
1.625545476609123
 40
1.740611624476843
 40
1.740611624476843
 40
1.740611624476843
 40
1.740611624476843
 10
-66.412087245635
 20
100.4824305933199
 30
0.0
 10
-66.4063908583803
 20
100.4824398698698
 30
0.0
 10
-66.39499901636206
 20
100.482458428126
 30
0.0
 10
-66.32695788945807
 20
100.4830469268366
 30
0.0
 10
-66.21999763534657
 20
100.4871965064619
 30
0.0
 10
-66.06536014212554
 20
100.5012040184304
 30
0.0
 10
-65.9259346624865
 20
100.5213343714619
 30
0.0
 10
-65.7906521592005
 20
100.5489649964727
 30
0.0
 10
-65.67627741669857
 20
100.5792482602635
 30
0.0
 10
-65.57261441175237
 20
100.6134919448747
 30
0.0
 10
-65.47762293423241
 20
100.651491015555
 30
0.0
 10
-65.38118674388177
 20
100.6984673722179
 30
0.0
 10
-65.28213518393478
 20
100.7589666044137
 30
0.0
 10
-65.19341601719711
 20
100.8304862347765
 30
0.0
 10
-65.11866964683333
 20
100.912437736504
 30
0.0
 10
-65.0604626439469
 20
101.0040830346229
 30
0.0
 10
-65.01957485667123
 20
101.112007155088
 30
0.0
 10
-65.01456135466115
 20
101.1899210046713
 30
0.0
 10
-65.01208724563503
 20
101.2283707452188
 30
0.0
 11
-66.412087245635
 21
100.4824305933199
 31
0.0
 11
-66.39499821849748
 21
100.482478420473
 31
0.0
 11
-66.37791251581439
 21
100.4826218926209
 31
0.0
 11
-66.20808724384095
 21
100.4892935237894
 31
0.0
 11
-66.07476658674386
 21
100.5014283290448
 31
0.0
 11
-65.9146098997295
 21
100.524745626119
 31
0.0
 11
-65.79059180217769
 21
100.5502178123602
 31
0.0
 11
-65.6692381269068
 21
100.5825476946133
 31
0.0
 11
-65.57193625263699
 21
100.6148403692177
 31
0.0
 11
-65.47986650208131
 21
100.651853533563
 31
0.0
 11
-65.38561893835993
 21
100.6980558158994
 31
0.0
 11
-65.28580722133552
 21
100.7596093946413
 31
0.0
 11
-65.1887665371762
 21
100.838835981827
 31
0.0
 11
-65.12310821678503
 21
100.9115683299464
 31
0.0
 11
-65.065335024354
 21
101.0030082287737
 31
0.0
 11
-65.02509076796636
 21
101.1140417098595
 31
0.0
 11
-65.01208724563503
 21
101.2283707452188
 31
0.0
  0
SPLINE
  5
27A
330
1F
100
AcDbEntity
  8
0
  6
Continuous
 62
     7
100
AcDbSpline
210
0.0
220
0.0
230
1.0
 70
     8
 71
     3
 72
    11
 73
     7
 74
     5
 42
0.000000001
 43
0.0000000001
 44
0.00000001
 40
0.0
 40
0.0
 40
0.0
 40
0.0
 40
0.066001649703946
 40
0.1355991681526458
 40
0.2099862095190303
 40
0.2875815016978386
 40
0.2875815016978386
 40
0.2875815016978386
 40
0.2875815016978386
 10
-66.61208724563505
 20
97.24807368989886
 30
0.0
 10
-66.60893396791553
 20
97.27025831517551
 30
0.0
 10
-66.6024556033189
 20
97.31583621374584
 30
0.0
 10
-66.55474221924476
 20
97.37117328738017
 30
0.0
 10
-66.48910114059773
 20
97.4086807464302
 30
0.0
 10
-66.43811729048231
 20
97.41345573206748
 30
0.0
 10
-66.412087245635
 20
97.4158936161343
 30
0.0
 11
-66.61208724563505
 21
97.24807368989886
 31
0.0
 11
-66.59686259032713
 21
97.31229540002353
 31
0.0
 11
-66.55350860187241
 21
97.36674029775818
 31
0.0
 11
-66.48862369939869
 21
97.40311861348059
 31
0.0
 11
-66.412087245635
 21
97.4158936161343
 31
0.0
  0
SPLINE
  5
27B
330
1F
100
AcDbEntity
  8
0
  6
Continuous
 62
     7
100
AcDbSpline
210
0.0
220
0.0
230
1.0
 70
     8
 71
     3
 72
    11
 73
     7
 74
     5
 42
0.000000001
 43
0.0000000001
 44
0.00000001
 40
0.0
 40
0.0
 40
0.0
 40
0.0
 40
0.0301632019558552
 40
0.0603125773235137
 40
0.1305033901365709
 40
0.2002316682183689
 40
0.2002316682183689
 40
0.2002316682183689
 40
0.2002316682183689
 10
-66.412087245635
 20
101.1083725498158
 30
0.0
 10
-66.4221417716001
 20
101.1083361529604
 30
0.0
 10
-66.44224621451178
 20
101.108263361344
 30
0.0
 10
-66.48573939655147
 20
101.1073971523452
 30
0.0
 10
-66.54240128088296
 20
101.1052439697265
 30
0.0
 10
-66.5889098393078
 20
101.1017036603218
 30
0.0
 10
-66.61208724563505
 20
101.099939349332
 30
0.0
 11
-66.412087245635
 21
101.1083725498158
 31
0.0
 11
-66.44224984228636
 21
101.1081814346661
 31
0.0
 11
-66.47239377107053
 21
101.1076083704678
 31
0.0
 11
-66.54252809827655
 21
101.1047929856118
 31
0.0
 11
-66.61208724563505
 21
101.099939349332
 31
0.0
  0
SPLINE
  5
27C
330
1F
100
AcDbEntity
  8
0
  6
Continuous
 62
     7
100
AcDbSpline
210
0.0
220
0.0
230
1.0
 70
     8
 71
     3
 72
    19
 73
    15
 74
    13
 42
0.000000001
 43
0.0000000001
 44
0.00000001
 40
0.0
 40
0.0
 40
0.0
 40
0.0
 40
0.0232875941140483
 40
0.0524899901741211
 40
0.0751930415231536
 40
0.0934400552862832
 40
0.1246104861972127
 40
0.1537171961864621
 40
0.1710723815970316
 40
0.1911093887983125
 40
0.209177475988273
 40
0.2231324927372387
 40
0.2412752856648666
 40
0.2554335589359681
 40
0.2554335589359681
 40
0.2554335589359681
 40
0.2554335589359681
 10
-66.412087245635
 20
101.1083725498158
 30
0.0
 10
-66.40432348143378
 20
101.1085280861721
 30
0.0
 10
-66.38682403966706
 20
101.1088786740257
 30
0.0
 10
-66.36188248131842
 20
101.1118019097169
 30
0.0
 10
-66.33891525810401
 20
101.1162893146813
 30
0.0
 10
-66.31569397906193
 20
101.1225678424795
 30
0.0
 10
-66.291087998444
 20
101.1316935024226
 30
0.0
 10
-66.26816741719739
 20
101.1439241893122
 30
0.0
 10
-66.25012883650172
 20
101.1568740899353
 30
0.0
 10
-66.23654748483523
 20
101.1695163213955
 30
0.0
 10
-66.22582762679077
 20
101.1832851500335
 30
0.0
 10
-66.21787249825728
 20
101.1980343364466
 30
0.0
 10
-66.21295435262567
 20
101.212864101808
 30
0.0
 10
-66.21235148822066
 20
101.223645165364
 30
0.0
 10
-66.21208724563508
 20
101.2283707452188
 30
0.0
 11
-66.412087245635
 21
101.1083725498158
 31
0.0
 11
-66.38881337936094
 21
101.1091718150586
 31
0.0
 11
-66.35979747013175
 21
101.1124667932073
 31
0.0
 11
-66.3375245141485
 21
101.1168649709903
 31
0.0
 11
-66.31991315645769
 21
101.1216392344663
 31
0.0
 11
-66.29073324440301
 21
101.1325995491807
 31
0.0
 11
-66.26513517445346
 21
101.1464537681477
 31
0.0
 11
-66.25106879171072
 21
101.1566193639137
 31
0.0
 11
-66.2364759410874
 21
101.1703500000543
 31
0.0
 11
-66.2254632642766
 21
101.1846739914645
 31
0.0
 11
-66.21885360383965
 21
101.1969644308983
 31
0.0
 11
-66.2134239889953
 21
101.2142757107265
 31
0.0
 11
-66.21208724563508
 21
101.2283707452188
 31
0.0
  0
SPLINE
  5
27D
330
1F
100
AcDbEntity
  8
0
  6
Continuous
 62
     7
100
AcDbSpline
210
0.0
220
0.0
230
1.0
 70
     8
 71
     3
 72
    17
 73
    13
 74
    11
 42
0.000000001
 43
0.0000000001
 44
0.00000001
 40
0.0
 40
0.0
 40
0.0
 40
0.0
 40
0.0445661056327889
 40
0.087300968923759
 40
0.1141793758512368
 40
0.1484400438515516
 40
0.1664083815515806
 40
0.1827137345056458
 40
0.1970242391754251
 40
0.2098737275229539
 40
0.2230639719761394
 40
0.2353347213277996
 40
0.2353347213277996
 40
0.2353347213277996
 40
0.2353347213277996
 10
-66.412087245635
 20
100.4824305933199
 30
0.0
 10
-66.4269485021816
 20
100.4819977913379
 30
0.0
 10
-66.45606035915652
 20
100.481149971166
 30
0.0
 10
-66.49374895660128
 20
100.4750227633685
 30
0.0
 10
-66.52728295428503
 20
100.4663287971841
 30
0.0
 10
-66.55206332034757
 20
100.4570169548817
 30
0.0
 10
-66.57228932869228
 20
100.4463157754577
 30
0.0
 10
-66.58570577920094
 20
100.4371834405365
 30
0.0
 10
-66.59654996640195
 20
100.4274727068901
 30
0.0
 10
-66.60493366850942
 20
100.416919683752
 30
0.0
 10
-66.61088131867567
 20
100.4053253282211
 30
0.0
 10
-66.61169506938346
 20
100.396811445406
 30
0.0
 10
-66.61208724563505
 20
100.3927082372153
 30
0.0
 11
-66.412087245635
 21
100.4824305933199
 31
0.0
 11
-66.45659403824097
 21
100.4801322696015
 31
0.0
 11
-66.49879271575765
 21
100.4733839236098
 31
0.0
 11
-66.52478645328809
 21
100.4665447447274
 31
0.0
 11
-66.55675948073633
 21
100.454235444431
 31
0.0
 11
-66.5726013683528
 21
100.4457563084433
 31
0.0
 11
-66.58602514822849
 21
100.4365006801531
 31
0.0
 11
-66.59659991280684
 21
100.4268588505395
 31
0.0
 11
-66.60452981820424
 21
100.4167481672102
 31
0.0
 11
-66.61018160877566
 21
100.4048301206166
 31
0.0
 11
-66.61208724563505
 21
100.3927082372153
 31
0.0
  0
SPLINE
  5
27E
330
1F
100
AcDbEntity
  8
0
  6
Continuous
 62
     7
100
AcDbSpline
210
0.0
220
0.0
230
1.0
 70
     8
 71
     3
 72
    13
 73
     9
 74
     7
 42
0.000000001
 43
0.0000000001
 44
0.00000001
 40
0.0
 40
0.0
 40
0.0
 40
0.0
 40
0.5220942639361742
 40
1.044179616044402
 40
1.566259823493433
 40
2.08834003094251
 40
2.610425383050752
 40
3.132519646986982
 40
3.132519646986982
 40
3.132519646986982
 40
3.132519646986982
 10
-62.31208724563498
 20
102.3028492052874
 30
0.0
 10
-62.29882217799616
 20
102.1283146144419
 30
0.0
 10
-62.27229225485443
 20
101.7792484138626
 30
0.0
 10
-62.06240348241279
 20
101.2915064210478
 30
0.0
 10
-61.74302045188146
 20
100.8719921529128
 30
0.0
 10
-61.32350618374639
 20
100.5526091223814
 30
0.0
 10
-60.83576419093163
 20
100.3427203499398
 30
0.0
 10
-60.48669799035223
 20
100.316190426798
 30
0.0
 10
-60.31216339950674
 20
100.3029253591592
 30
0.0
 11
-62.31208724563498
 21
102.3028492052874
 31
0.0
 11
-62.24394235831341
 21
101.7852212532949
 31
0.0
 11
-62.04415323468044
 21
101.3028755022428
 31
0.0
 11
-61.72633197416889
 21
100.8886806306253
 31
0.0
 11
-61.31213710255145
 21
100.5708593701138
 31
0.0
 11
-60.82979135149931
 21
100.3710702464808
 31
0.0
 11
-60.31216339950674
 21
100.3029253591592
 31
0.0
  0
SPLINE
  5
27F
330
1F
100
AcDbEntity
  8
0
  6
Continuous
 62
     7
100
AcDbSpline
210
0.0
220
0.0
230
1.0
 70
     8
 71
     3
 72
    13
 73
     9
 74
     7
 42
0.000000001
 43
0.0000000001
 44
0.00000001
 40
0.0
 40
0.0
 40
0.0
 40
0.0
 40
0.5220942639362376
 40
1.044179616044518
 40
1.566259823493581
 40
2.088340030942593
 40
2.610425383050856
 40
3.132519646987023
 40
3.132519646987023
 40
3.132519646987023
 40
3.132519646987023
 10
-42.71201109176343
 20
100.3029253591592
 30
0.0
 10
-42.53747650091795
 20
100.316190426798
 30
0.0
 10
-42.18841030033854
 20
100.3427203499398
 30
0.0
 10
-41.70066830752373
 20
100.5526091223814
 30
0.0
 10
-41.28115403938865
 20
100.8719921529127
 30
0.0
 10
-40.96177100885738
 20
101.2915064210479
 30
0.0
 10
-40.75188223641568
 20
101.7792484138625
 30
0.0
 10
-40.72535231327392
 20
102.1283146144419
 30
0.0
 10
-40.71208724563508
 20
102.3028492052874
 30
0.0
 11
-42.71201109176343
 21
100.3029253591592
 31
0.0
 11
-42.19438313977085
 21
100.3710702464808
 31
0.0
 11
-41.71203738871867
 21
100.5708593701138
 31
0.0
 11
-41.29784251710124
 21
100.8886806306253
 31
0.0
 11
-40.98002125658974
 21
101.3028755022428
 31
0.0
 11
-40.78023213295671
 21
101.7852212532949
 31
0.0
 11
-40.71208724563508
 21
102.3028492052874
 31
0.0
  0
SPLINE
  5
280
330
1F
100
AcDbEntity
  8
0
  6
Continuous
 62
     7
100
AcDbSpline
210
0.0
220
0.0
230
1.0
 70
     8
 71
     3
 72
    13
 73
     9
 74
     7
 42
0.000000001
 43
0.0000000001
 44
0.00000001
 40
0.0
 40
0.0
 40
0.0
 40
0.0
 40
0.522094263936252
 40
1.044179616044489
 40
1.566259823493489
 40
2.088340030942526
 40
2.610425383050845
 40
3.132519646987096
 40
3.132519646987096
 40
3.132519646987096
 40
3.132519646987096
 10
-40.71208724563508
 20
119.9030015130308
 30
0.0
 10
-40.72535231327392
 20
120.0775361038763
 30
0.0
 10
-40.75188223641568
 20
120.4266023044557
 30
0.0
 10
-40.9617710088574
 20
120.9143442972704
 30
0.0
 10
-41.28115403938864
 20
121.3338585654056
 30
0.0
 10
-41.70066830752377
 20
121.6532415959368
 30
0.0
 10
-42.18841030033852
 20
121.8631303683786
 30
0.0
 10
-42.53747650091795
 20
121.8896602915204
 30
0.0
 10
-42.71201109176343
 20
121.9029253591592
 30
0.0
 11
-40.71208724563508
 21
119.9030015130308
 31
0.0
 11
-40.78023213295671
 21
120.4206294650234
 31
0.0
 11
-40.98002125658974
 21
120.9029752160755
 31
0.0
 11
-41.29784251710124
 21
121.3171700876929
 31
0.0
 11
-41.71203738871867
 21
121.6349913482045
 31
0.0
 11
-42.19438313977085
 21
121.8347804718375
 31
0.0
 11
-42.71201109176343
 21
121.9029253591592
 31
0.0
  0
SPLINE
  5
281
330
1F
100
AcDbEntity
  8
0
  6
Continuous
 62
     7
100
AcDbSpline
210
0.0
220
0.0
230
1.0
 70
     8
 71
     3
 72
    13
 73
     9
 74
     7
 42
0.000000001
 43
0.0000000001
 44
0.00000001
 40
0.0
 40
0.0
 40
0.0
 40
0.0
 40
0.5220942639362416
 40
1.044179616044526
 40
1.566259823493569
 40
2.0883400309426
 40
2.610425383050812
 40
3.132519646987057
 40
3.132519646987057
 40
3.132519646987057
 40
3.132519646987057
 10
-60.31216339950674
 20
121.9029253591592
 30
0.0
 10
-60.48669799035222
 20
121.8896602915204
 30
0.0
 10
-60.83576419093164
 20
121.8631303683786
 30
0.0
 10
-61.32350618374633
 20
121.6532415959368
 30
0.0
 10
-61.74302045188148
 20
121.3338585654055
 30
0.0
 10
-62.06240348241279
 20
120.9143442972704
 30
0.0
 10
-62.27229225485443
 20
120.4266023044556
 30
0.0
 10
-62.29882217799616
 20
120.0775361038763
 30
0.0
 10
-62.31208724563498
 20
119.9030015130308
 30
0.0
 11
-60.31216339950674
 21
121.9029253591592
 31
0.0
 11
-60.82979135149931
 21
121.8347804718375
 31
0.0
 11
-61.31213710255145
 21
121.6349913482045
 31
0.0
 11
-61.72633197416889
 21
121.3171700876929
 31
0.0
 11
-62.04415323468044
 21
120.9029752160755
 31
0.0
 11
-62.2439423583134
 21
120.4206294650234
 31
0.0
 11
-62.31208724563498
 21
119.9030015130308
 31
0.0
  0
ARC
  5
282
330
1F
100
AcDbEntity
  8
0
  6
Continuous
 62
     2
100
AcDbCircle
 10
-51.51208724563503
 20
226.9632647075754
 30
0.0
 40
0.0999913502283521
100
AcDbArc
 50
210.0000000001593
 51
330.0000000000524
  0
ARC
  5
283
330
1F
100
AcDbEntity
  8
0
  6
Continuous
 62
     2
100
AcDbCircle
 10
-52.91196614883984
 20
225.4254104287767
 30
0.0
 40
0.3999654009157894
100
AcDbArc
 50
180.0
 51
240.0183606311236
  0
ARC
  5
284
330
1F
100
AcDbEntity
  8
0
  6
Continuous
 62
     2
100
AcDbCircle
 10
-46.51263080484438
 20
226.7632820071177
 30
0.0
 40
0.0999913502289465
100
AcDbArc
 50
299.9816393688846
 51
60.01836063110726
  0
ARC
  5
285
330
1F
100
AcDbEntity
  8
0
  6
Continuous
 62
     2
100
AcDbCircle
 10
-49.91222564197193
 20
228.2166563787872
 30
0.0
 40
0.1999827004580161
100
AcDbArc
 50
60.01836063113575
 51
180.0
  0
ARC
  5
286
330
1F
100
AcDbEntity
  8
0
  6
Continuous
 62
     2
100
AcDbCircle
 10
-49.91222564197193
 20
225.309907635448
 30
0.0
 40
0.1999827004578876
100
AcDbArc
 50
180.0
 51
299.9816393688887
  0
ARC
  5
287
330
1F
100
AcDbEntity
  8
0
  6
Continuous
 62
     2
100
AcDbCircle
 10
-56.51154368642534
 20
226.7632820071177
 30
0.0
 40
0.0999913502286662
100
AcDbArc
 50
119.9816393686388
 51
240.0183606313693
  0
ARC
  5
288
102
{ACAD_REACTORS
330
313
102
}
330
1F
100
AcDbEntity
  8
1
  6
Continuous
 62
     7
100
AcDbCircle
 10
-42.26208724563503
 20
101.1934153491631
 30
0.0
 40
5.999999999999877
100
AcDbArc
 50
300.0000000000007
 51
323.6489755581107
  0
ARC
  5
289
102
{ACAD_REACTORS
330
314
102
}
330
1F
100
AcDbEntity
  8
1
  6
Continuous
 62
     7
100
AcDbCircle
 10
-60.76208724563503
 20
101.1934153491631
 30
0.0
 40
6.0000000000006
100
AcDbArc
 50
216.3510244418893
 51
239.9999999999993
  0
ARC
  5
28A
102
{ACAD_REACTORS
330
315
102
}
330
1F
100
AcDbEntity
  8
1
  6
Continuous
 62
     7
100
AcDbCircle
 10
-42.26208724563503
 20
121.0124353691552
 30
0.0
 40
6.0
100
AcDbArc
 50
0.0
 51
60.00000000000033
  0
ARC
  5
28B
102
{ACAD_REACTORS
330
315
102
}
330
1F
100
AcDbEntity
  8
1
  6
Continuous
 62
     7
100
AcDbCircle
 10
-51.51208724563503
 20
126.3529253591591
 30
0.0
 40
6.000000000000136
100
AcDbArc
 50
60.00000000000075
 51
119.9999999999993
  0
ARC
  5
28C
102
{ACAD_REACTORS
330
315
102
}
330
1F
100
AcDbEntity
  8
1
  6
Continuous
 62
     7
100
AcDbCircle
 10
-60.76208724563503
 20
121.0124353691552
 30
0.0
 40
6.000000000000061
100
AcDbArc
 50
119.9999999999997
 51
180.0
  0
ARC
  5
28D
330
1F
100
AcDbEntity
  8
1
  6
Continuous
 62
     7
100
AcDbCircle
 10
-37.91208724563501
 20
96.60292535915934
 30
0.0
 40
1.500000000000227
100
AcDbArc
 50
270.0
 51
359.9999999999913
  0
ARC
  5
28E
330
1F
100
AcDbEntity
  8
1
  6
Continuous
 62
     7
100
AcDbCircle
 10
-65.11208724563505
 20
96.60292535915934
 30
0.0
 40
1.5
100
AcDbArc
 50
180.0000000000087
 51
270.0
  0
MTEXT
  5
290
330
1F
100
AcDbEntity
  8
Symbole_TC_020513_DIN_
 62
     7
100
AcDbMText
 10
-146.02402478906
 20
71.35473436280054
 30
0.0
 40
3.49999994039535
 41
0.0
 71
     1
 72
     1
  1
Panel cut out
  7
CONVERTER_13
 73
     1
 44
1.0
  0
MTEXT
  5
291
330
1F
100
AcDbEntity
  8
1
 62
     7
100
AcDbMText
 10
-152.7236993112573
 20
12.5
 30
0.0
 40
4.5
 41
0.0
 71
     4
 72
     1
  1
CKAX 03 I\Pmetal bulkhead housing steel 1 lev.
  7
CONVERTER_12
 73
     1
 44
0.90036014405762
  0
MTEXT
  5
292
330
1F
100
AcDbEntity
  8
1
 62
     7
100
AcDbMText
 10
-40.32369931125726
 20
10.06063942075605
 30
0.0
 40
4.5
 41
0.0
 71
     5
 72
     1
  1
1:1
  7
CONVERTER_12
 73
     1
 44
1.32052821128451
  0
MTEXT
  5
293
330
1F
100
AcDbEntity
  8
1
 62
     7
100
AcDbMText
 10
-177.4
 20
12.49999999999989
 30
0.0
 40
3.0
 41
0.0
 71
     4
 72
     1
  1
20/10/08
  7
CONVERTER_12
 73
     1
 44
1.32052821128451
  0
MTEXT
  5
294
330
1F
100
AcDbEntity
  8
1
 62
     7
100
AcDbMText
 10
-177.4
 20
7.49999999999989
 30
0.0
 40
3.0
 41
0.0
 71
     4
 72
     1
  1
T.Tedeschi
  7
CONVERTER_12
 73
     1
 44
1.32052821128451
  0
DIMENSION
  5
2A0
330
1F
100
AcDbEntity
  8
1
100
AcDbDimension
  2
*D3
 10
-66.76208724563509
 20
186.350662172453
 30
0.0
 11
-51.51208724563509
 21
190.000662172453
 31
0.0
 70
    32
  1
<>
 71
     5
 42
-1.0
 53
0.00013888888889
  3
ME10_DIM_10
100
AcDbAlignedDimension
 13
-36.26208724563503
 23
206.5728717612658
 33
0.0
 14
-66.76208724563514
 24
206.5728717612658
 34
0.0
100
AcDbRotatedDimension
  0
DIMENSION
  5
2AD
330
1F
100
AcDbEntity
  8
1
100
AcDbDimension
  2
*D4
 10
-160.3620872456351
 20
186.338526330691
 30
0.0
 11
-156.3620872456351
 21
189.838526330691
 31
0.0
 70
    32
  1
<>
 71
     5
 42
-1.0
 53
0.00013888888889
  3
ME10_DIM_11
100
AcDbAlignedDimension
 13
-152.3620872456351
 23
206.5728717612658
 33
0.0
 14
-160.3620872456351
 24
225.0728717612658
 34
0.0
100
AcDbRotatedDimension
  0
DIMENSION
  5
2B8
330
1F
100
AcDbEntity
  8
1
100
AcDbDimension
  2
*D5
 10
-152.3620872456351
 20
186.338526330691
 30
0.0
 11
-131.3620872456351
 21
189.838526330691
 31
0.0
 70
    32
  1
<>
 71
     5
 42
-1.0
 53
0.00013888888889
  3
ME10_DIM_12
100
AcDbAlignedDimension
 13
-110.3620872456351
 23
206.5728717612658
 33
0.0
 14
-152.3620872456351
 24
206.5728717612658
 34
0.0
100
AcDbRotatedDimension
  0
DIMENSION
  5
2C4
330
1F
100
AcDbEntity
  8
1
100
AcDbDimension
  2
*D6
 10
-23.96208724563508
 20
126.1029253591591
 30
0.0
 11
-23.96208724563508
 21
111.1029253591591
 31
0.0
 70
    32
  1
<>
 71
     5
 42
-1.0
 53
0.00013888888889
  3
ME10_DIM_13
100
AcDbAlignedDimension
 13
-47.91208724563501
 23
96.10292535915912
 33
0.0
 14
-47.91208724563501
 24
126.1029253591591
 34
0.0
 50
90.0
100
AcDbRotatedDimension
  0
DIMENSION
  5
2CF
330
1F
100
AcDbEntity
  8
1
100
AcDbDimension
  2
*D7
 10
-67.81208724563498
 20
261.6829247606119
 30
0.0
 11
-51.51208724563503
 21
265.1829247606119
 31
0.0
 70
    32
  1
33
 71
     5
 42
-1.0
 53
0.00013888888889
  3
ME10_DIM_14
100
AcDbAlignedDimension
 13
-35.21208724563508
 23
248.7292584791146
 33
0.0
 14
-67.81208724563498
 24
248.7292584791146
 34
0.0
100
AcDbRotatedDimension
  0
DIMENSION
  5
2DA
330
1F
100
AcDbEntity
  8
1
100
AcDbDimension
  2
*D8
 10
-143.855091818563
 20
78.3402054323986
 30
0.0
 11
-132.855091818563
 21
81.8402054323986
 31
0.0
 70
    32
  1
<>
 71
     5
 42
-1.0
 53
0.00013888888889
  3
ME10_DIM_15
100
AcDbAlignedDimension
 13
-121.855091818563
 23
105.6594747273784
 33
0.0
 14
-143.855091818563
 24
105.6594747273784
 34
0.0
100
AcDbRotatedDimension
  0
DIMENSION
  5
2E6
330
1F
100
AcDbEntity
  8
1
100
AcDbDimension
  2
*D9
 10
-104.0860545367956
 20
127.6594747273784
 30
0.0
 11
-104.0860545367956
 21
116.6594747273784
 31
0.0
 70
    32
  1
<>
 71
     5
 42
-1.0
 53
0.00013888888889
  3
ME10_DIM_16
100
AcDbAlignedDimension
 13
-121.855091818563
 23
105.6594747273784
 33
0.0
 14
-121.855091818563
 24
127.6594747273784
 34
0.0
 50
90.0
100
AcDbRotatedDimension
  0
DIMENSION
  5
2F2
330
1F
100
AcDbEntity
  8
1
100
AcDbDimension
  2
*D10
 10
-94.72369904051703
 20
131.6594747273784
 30
0.0
 11
-94.72369904051703
 21
116.6594747273784
 31
0.0
 70
    32
  1
<>
 71
     5
 42
-1.0
 53
0.00013888888889
  3
ME10_DIM_17
100
AcDbAlignedDimension
 13
-129.255091818563
 23
101.6594747273784
 33
0.0
 14
-129.255091818563
 24
131.6594747273784
 34
0.0
 50
90.0
100
AcDbRotatedDimension
  0
DIMENSION
  5
2FE
330
1F
100
AcDbEntity
  8
1
100
AcDbDimension
  2
*D11
 10
-99.912087245635
 20
230.5728717612658
 30
0.0
 11
-99.912087245635
 21
218.5728717612658
 31
0.0
 70
    32
  1
<>
 71
     5
 42
-1.0
 53
0.00013888888889
  3
ME10_DIM_18
100
AcDbAlignedDimension
 13
-110.3620872456351
 23
206.5728717612658
 33
0.0
 14
-119.3620872456351
 24
230.5728717612658
 34
0.0
 50
90.0
100
AcDbRotatedDimension
  0
INSERT
  5
307
330
1F
100
AcDbEntity
  8
1
100
AcDbBlockReference
  2
*D12
 10
0.0
 20
0.0
 30
0.0
  0
INSERT
  5
310
330
1F
100
AcDbEntity
  8
1
100
AcDbBlockReference
  2
*D13
 10
0.0
 20
0.0
 30
0.0
  0
HATCH
  5
311
330
1F
100
AcDbEntity
  8
1
  6
Continuous
 62
     2
100
AcDbHatch
 10
0.0
 20
0.0
 30
0.0
210
0.0
220
0.0
230
1.0
  2
SOLID
 70
     1
 71
     1
 91
        1
 92
        1
 93
        4
 72
     1
 10
-36.26208724563503
 20
206.5728717612658
 11
-66.76208724563514
 21
206.5728717612658
 72
     1
 10
-66.76208724563514
 20
206.5728717612658
 11
-66.76208724563514
 21
210.2728717612659
 72
     1
 10
-66.76208724563514
 20
210.2728717612659
 11
-36.26208724563503
 21
210.2728717612659
 72
     1
 10
-36.26208724563503
 20
210.2728717612659
 11
-36.26208724563503
 21
206.5728717612658
 97
        4
330
F7
330
F4
330
F5
330
F6
 75
     0
 76
     1
 98
        1
 10
0.0
 20
0.0
  0
HATCH
  5
312
330
1F
100
AcDbEntity
  8
1
  6
Continuous
 62
     2
100
AcDbHatch
 10
0.0
 20
0.0
 30
0.0
210
0.0
220
0.0
230
1.0
  2
SOLID
 70
     1
 71
     1
 91
        1
 92
        1
 93
        4
 72
     1
 10
-110.3620872456351
 20
206.5728717612658
 11
-152.3620872456351
 21
206.5728717612658
 72
     1
 10
-152.3620872456351
 20
206.5728717612658
 11
-152.3620872456351
 21
210.2728717612659
 72
     1
 10
-152.3620872456351
 20
210.2728717612659
 11
-110.3620872456351
 21
210.2728717612659
 72
     1
 10
-110.3620872456351
 20
210.2728717612659
 11
-110.3620872456351
 21
206.5728717612658
 97
        4
330
DC
330
DB
330
DE
330
DD
 75
     0
 76
     1
 98
        1
 10
0.0
 20
0.0
  0
HATCH
  5
313
330
1F
100
AcDbEntity
  8
1
  6
Continuous
 62
     2
100
AcDbHatch
 10
0.0
 20
0.0
 30
0.0
210
0.0
220
0.0
230
1.0
  2
SOLID
 70
     1
 71
     1
 91
        1
 92
        1
 93
        7
 72
     1
 10
-43.24413805320387
 20
95.10292535915912
 11
-40.01208724563503
 21
96.96895076294354
 72
     2
 10
-42.51208724563503
 20
101.2990777818658
 40
5.000000000000066
 50
299.9999999999995
 51
334.1580672368334
 73
     1
 72
     1
 10
-38.01208724563503
 20
99.11962831009552
 11
-38.01208724563503
 21
98.37955099326504
 72
     2
 10
-36.77380260482846
 20
98.75114706316319
 40
1.292838926866453
 50
196.7039423627774
 51
239.5146683116868
 73
     1
 72
     2
 10
-42.26208724563503
 20
101.1934153491631
 40
5.999999999999877
 50
36.35102444188927
 51
59.99999999999932
 73
     0
 72
     1
 10
-39.26208724563503
 20
95.99726292645661
 11
-40.81112535131183
 21
95.10292535915912
 72
     1
 10
-40.81112535131183
 20
95.10292535915912
 11
-43.24413805320387
 21
95.10292535915912
 97
        7
330
E3
330
1F9
330
E2
330
1F8
330
288
330
E1
330
E4
 75
     0
 76
     1
 98
        1
 10
0.0
 20
0.0
  0
HATCH
  5
314
330
1F
100
AcDbEntity
  8
1
  6
Continuous
 62
     2
100
AcDbHatch
 10
0.0
 20
0.0
 30
0.0
210
0.0
220
0.0
230
1.0
  2
SOLID
 70
     1
 71
     1
 91
        1
 92
        1
 93
        7
 72
     1
 10
-62.21304913995823
 20
95.10292535915912
 11
-63.76208724563503
 21
95.99726292645661
 72
     2
 10
-60.76208724563503
 20
101.1934153491631
 40
6.0000000000006
 50
120.0000000000007
 51
143.6489755581108
 73
     0
 72
     2
 10
-66.2503718864416
 20
98.75114706316319
 40
1.292838926866408
 50
300.4853316883129
 51
343.2960576372226
 73
     1
 72
     1
 10
-65.01208724563503
 20
98.37955099326504
 11
-65.01208724563503
 21
99.11962831009552
 72
     2
 10
-60.51208724563503
 20
101.2990777818658
 40
4.999999999999977
 50
205.8419327631666
 51
240.0000000000004
 73
     1
 72
     1
 10
-63.01208724563503
 20
96.96895076294354
 11
-59.78003643806619
 21
95.10292535915912
 72
     1
 10
-59.78003643806619
 20
95.10292535915912
 11
-62.21304913995823
 21
95.10292535915912
 97
        7
330
E6
330
1FA
330
E7
330
1FB
330
289
330
F8
330
E5
 75
     0
 76
     1
 98
        1
 10
0.0
 20
0.0
  0
HATCH
  5
315
330
1F
100
AcDbEntity
  8
1
  6
Continuous
 62
     2
100
AcDbHatch
 10
0.0
 20
0.0
 30
0.0
210
0.0
220
0.0
230
1.0
  2
SOLID
 70
     1
 71
     1
 91
        1
 92
        1
 93
       20
 72
     2
 10
-42.26208724563503
 20
121.0124353691552
 40
6.0
 50
0.0
 51
60.00000000000033
 73
     1
 72
     1
 10
-39.26208724563503
 20
126.2085877918619
 11
-48.51208724563503
 21
131.5490777818659
 72
     2
 10
-51.51208724563503
 20
126.3529253591591
 40
6.000000000000136
 50
60.00000000000075
 51
119.9999999999993
 73
     1
 72
     1
 10
-54.51208724563503
 20
131.5490777818659
 11
-63.76208724563503
 21
126.2085877918619
 72
     2
 10
-60.76208724563503
 20
121.0124353691552
 40
6.000000000000061
 50
119.9999999999997
 51
180.0
 73
     1
 72
     1
 10
-66.76208724563514
 20
121.0124353691552
 11
-66.76208724563514
 21
118.266663479613
 72
     1
 10
-66.76208724563514
 20
118.266663479613
 11
-66.61208724563505
 21
118.266663479613
 72
     1
 10
-66.61208724563505
 20
118.266663479613
 11
-66.61208724563505
 21
119.7666634796102
 72
     1
 10
-66.61208724563505
 20
119.7666634796102
 11
-65.51208724563503
 21
119.7666634796101
 72
     1
 10
-65.51208724563503
 20
119.7666634796101
 11
-65.51208724563503
 21
120.9067729364525
 72
     2
 10
-60.51208724563503
 20
120.9067729364525
 40
5.000000000000004
 50
180.0
 51
240.0
 73
     0
 72
     1
 10
-63.01208724563503
 20
125.2368999553747
 11
-54.01208724563503
 21
130.4330523780813
 72
     2
 10
-51.51208724563503
 20
126.1029253591591
 40
5.000000000000004
 50
240.0
 51
300.0
 73
     0
 72
     1
 10
-49.01208724563503
 20
130.4330523780813
 11
-40.01208724563503
 21
125.2368999553747
 72
     2
 10
-42.51208724563503
 20
120.9067729364525
 40
5.0
 50
300.0
 51
360.0
 73
     0
 72
     1
 10
-37.51208724563503
 20
120.9067729364525
 11
-37.51208724563503
 21
119.7666634796102
 72
     1
 10
-37.51208724563503
 20
119.7666634796102
 11
-36.41208724563501
 21
119.7666634796102
 72
     1
 10
-36.41208724563501
 20
119.7666634796102
 11
-36.41208724563501
 21
118.266663479613
 72
     1
 10
-36.41208724563501
 20
118.266663479613
 11
-36.26208724563503
 21
118.266663479613
 72
     1
 10
-36.26208724563503
 20
118.266663479613
 11
-36.26208724563503
 21
121.0124353691552
 97
       20
330
28A
330
FB
330
28B
330
F9
330
28C
330
F0
330
F2
330
F1
330
ED
330
1DF
330
231
330
1E8
330
238
330
1E3
330
236
330
1E4
330
EF
330
EB
330
EC
330
FA
 75
     0
 76
     1
 98
        1
 10
0.0
 20
0.0
  0
ENDSEC
  0
SECTION
  2
OBJECTS
  0
DICTIONARY
  5
C
330
0
100
AcDbDictionary
281
     1
  3
ACAD_GROUP
350
D
  3
ACAD_LAYOUT
350
1A
  3
ACAD_MATERIAL
350
3B
  3
ACAD_MLEADERSTYLE
350
318
  3
ACAD_MLINESTYLE
350
17
  3
ACAD_PLOTSETTINGS
350
19
  3
ACAD_PLOTSTYLENAME
350
E
  3
ACAD_VISUALSTYLE
350
2A
  3
AcDbVariableDictionary
350
316
  0
DICTIONARY
  5
D
102
{ACAD_REACTORS
330
C
102
}
330
C
100
AcDbDictionary
281
     1
  0
DICTIONARY
  5
1A
102
{ACAD_REACTORS
330
C
102
}
330
C
100
AcDbDictionary
281
     1
  3
Layout1
350
1E
  3
Layout2
350
26
  3
Model
350
22
  0
DICTIONARY
  5
3B
102
{ACAD_REACTORS
330
C
102
}
330
C
100
AcDbDictionary
281
     1
  3
ByBlock
350
3D
  3
ByLayer
350
3C
  3
Global
350
3E
  0
DICTIONARY
  5
318
102
{ACAD_REACTORS
330
C
102
}
330
C
100
AcDbDictionary
281
     1
  0
DICTIONARY
  5
17
102
{ACAD_REACTORS
330
C
102
}
330
C
100
AcDbDictionary
281
     1
  3
Standard
350
18
  0
DICTIONARY
  5
19
102
{ACAD_REACTORS
330
C
102
}
330
C
100
AcDbDictionary
281
     1
  0
ACDBDICTIONARYWDFLT
  5
E
102
{ACAD_REACTORS
330
C
102
}
330
C
100
AcDbDictionary
281
     1
  3
Normal
350
F
100
AcDbDictionaryWithDefault
340
F
  0
DICTIONARY
  5
2A
102
{ACAD_REACTORS
330
C
102
}
330
C
100
AcDbDictionary
281
     1
  3
2dWireframe
350
2F
  3
3D Hidden
350
31
  3
3dWireframe
350
30
  3
Basic
350
32
  3
Brighten
350
36
  3
ColorChange
350
3A
  3
Conceptual
350
34
  3
Dim
350
35
  3
Facepattern
350
39
  3
Flat
350
2B
  3
FlatWithEdges
350
2C
  3
Gouraud
350
2D
  3
GouraudWithEdges
350
2E
  3
Linepattern
350
38
  3
Realistic
350
33
  3
Thicken
350
37
  0
DICTIONARY
  5
316
102
{ACAD_REACTORS
330
C
102
}
330
C
100
AcDbDictionary
281
     1
  3
DIMASSOC
350
319
  3
HIDETEXT
350
31A
  0
LAYOUT
  5
1E
102
{ACAD_REACTORS
330
1A
102
}
330
1A
100
AcDbPlotSettings
  1

  2
none_device
  4

  6

 40
0.0
 41
0.0
 42
0.0
 43
0.0
 44
0.0
 45
0.0
 46
0.0
 47
0.0
 48
0.0
 49
0.0
140
0.0
141
0.0
142
1.0
143
1.0
 70
   688
 72
     0
 73
     0
 74
     5
  7

 75
    16
147
1.0
148
0.0
149
0.0
100
AcDbLayout
  1
Layout1
 70
     1
 71
     1
 10
0.0
 20
0.0
 11
12.0
 21
9.0
 12
0.0
 22
0.0
 32
0.0
 14
1.00000000000000E+20
 24
1.00000000000000E+20
 34
1.00000000000000E+20
 15
-1.00000000000000E+20
 25
-1.00000000000000E+20
 35
-1.00000000000000E+20
146
0.0
 13
0.0
 23
0.0
 33
0.0
 16
1.0
 26
0.0
 36
0.0
 17
0.0
 27
1.0
 37
0.0
 76
     0
330
1B
  0
LAYOUT
  5
26
102
{ACAD_REACTORS
330
1A
102
}
330
1A
100
AcDbPlotSettings
  1

  2
none_device
  4

  6

 40
0.0
 41
0.0
 42
0.0
 43
0.0
 44
0.0
 45
0.0
 46
0.0
 47
0.0
 48
0.0
 49
0.0
140
0.0
141
0.0
142
1.0
143
1.0
 70
   688
 72
     0
 73
     0
 74
     5
  7

 75
    16
147
1.0
148
0.0
149
0.0
100
AcDbLayout
  1
Layout2
 70
     1
 71
     2
 10
0.0
 20
0.0
 11
0.0
 21
0.0
 12
0.0
 22
0.0
 32
0.0
 14
0.0
 24
0.0
 34
0.0
 15
0.0
 25
0.0
 35
0.0
146
0.0
 13
0.0
 23
0.0
 33
0.0
 16
1.0
 26
0.0
 36
0.0
 17
0.0
 27
1.0
 37
0.0
 76
     0
330
23
  0
LAYOUT
  5
22
102
{ACAD_REACTORS
330
1A
102
}
330
1A
100
AcDbPlotSettings
  1

  2
none_device
  4

  6

 40
0.0
 41
0.0
 42
0.0
 43
0.0
 44
0.0
 45
0.0
 46
0.0
 47
0.0
 48
0.0
 49
0.0
140
0.0
141
0.0
142
1.0
143
1.0
 70
  1712
 72
     0
 73
     0
 74
     0
  7

 75
     0
147
1.0
148
0.0
149
0.0
100
AcDbLayout
  1
Model
 70
     1
 71
     0
 10
0.0
 20
0.0
 11
12.0
 21
9.0
 12
0.0
 22
0.0
 32
0.0
 14
-210.0000000000001
 24
0.0
 34
0.0
 15
0.0
 25
297.0000000000001
 35
0.0
146
0.0
 13
0.0
 23
0.0
 33
0.0
 16
1.0
 26
0.0
 36
0.0
 17
0.0
 27
1.0
 37
0.0
 76
     0
330
1F
331
29
  0
MATERIAL
  5
3D
102
{ACAD_REACTORS
330
3B
102
}
102
{ACAD_XDICTIONARY
360
33D
102
}
330
3B
100
AcDbMaterial
  1
ByBlock
  0
MATERIAL
  5
3C
102
{ACAD_REACTORS
330
3B
102
}
102
{ACAD_XDICTIONARY
360
33B
102
}
330
3B
100
AcDbMaterial
  1
ByLayer
  0
MATERIAL
  5
3E
102
{ACAD_REACTORS
330
3B
102
}
102
{ACAD_XDICTIONARY
360
33F
102
}
330
3B
100
AcDbMaterial
  1
Global
  0
MLINESTYLE
  5
18
102
{ACAD_REACTORS
330
17
102
}
330
17
100
AcDbMlineStyle
  2
Standard
 70
     0
  3

 62
   256
 51
90.0
 52
90.0
 71
     2
 49
0.5
 62
   256
  6
BYLAYER
 49
-0.5
 62
   256
  6
BYLAYER
  0
ACDBPLACEHOLDER
  5
F
102
{ACAD_REACTORS
330
E
102
}
330
E
  0
VISUALSTYLE
  5
2F
102
{ACAD_REACTORS
330
2A
102
}
102
{ACAD_XDICTIONARY
360
323
102
}
330
2A
100
AcDbVisualStyle
  2
2dWireframe
 70
     4
 71
     0
 72
     2
 73
     0
 90
        0
 40
-0.6
 41
-30.0
 62
     5
 63
     7
 74
     1
 91
        4
 64
     7
 65
   257
 75
     1
175
     1
 42
1.0
 92
        0
 66
   257
 43
1.0
 76
     1
 77
     6
 78
     2
 67
     7
 79
     5
170
     0
171
     0
290
     0
174
     0
 93
        1
 44
0.0
173
     0
291
     0
 45
0.0
1001
ACAD
1000
AcDbSavedByObjectVersion
1070
     0
  0
VISUALSTYLE
  5
31
102
{ACAD_REACTORS
330
2A
102
}
102
{ACAD_XDICTIONARY
360
327
102
}
330
2A
100
AcDbVisualStyle
  2
3D Hidden
 70
     6
 71
     1
 72
     2
 73
     2
 90
        0
 40
-0.6
 41
-30.0
 62
     5
 63
     7
 74
     2
 91
        2
 64
     7
 65
   257
 75
     2
175
     1
 42
40.0
 92
        0
 66
   257
 43
1.0
 76
     1
 77
     6
 78
     2
 67
     7
 79
     3
170
     0
171
     0
290
     0
174
     0
 93
        1
 44
0.0
173
     0
291
     0
 45
0.0
1001
ACAD
1000
AcDbSavedByObjectVersion
1070
     0
  0
VISUALSTYLE
  5
30
102
{ACAD_REACTORS
330
2A
102
}
102
{ACAD_XDICTIONARY
360
325
102
}
330
2A
100
AcDbVisualStyle
  2
3dWireframe
 70
     5
 71
     0
 72
     2
 73
     0
 90
        0
 40
-0.6
 41
-30.0
 62
     5
 63
     7
 74
     1
 91
        4
 64
     7
 65
   257
 75
     1
175
     1
 42
1.0
 92
        0
 66
   257
 43
1.0
 76
     1
 77
     6
 78
     2
 67
     7
 79
     5
170
     0
171
     0
290
     0
174
     0
 93
        1
 44
0.0
173
     0
291
     0
 45
0.0
1001
ACAD
1000
AcDbSavedByObjectVersion
1070
     0
  0
VISUALSTYLE
  5
32
102
{ACAD_REACTORS
330
2A
102
}
102
{ACAD_XDICTIONARY
360
329
102
}
330
2A
100
AcDbVisualStyle
  2
Basic
 70
     7
 71
     1
 72
     0
 73
     1
 90
        0
 40
-0.6
 41
-30.0
 62
     5
 63
     7
 74
     0
 91
        4
 64
     7
 65
   257
 75
     1
175
     1
 42
1.0
 92
        8
 66
     7
 43
1.0
 76
     1
 77
     6
 78
     2
 67
     7
 79
     5
170
     0
171
     0
290
     0
174
     0
 93
        1
 44
0.0
173
     0
291
     1
 45
0.0
1001
ACAD
1000
AcDbSavedByObjectVersion
1070
     0
  0
VISUALSTYLE
  5
36
102
{ACAD_REACTORS
330
2A
102
}
102
{ACAD_XDICTIONARY
360
331
102
}
330
2A
100
AcDbVisualStyle
  2
Brighten
 70
    12
 71
     2
 72
     2
 73
     0
 90
        0
 40
-0.6
 41
-30.0
 62
     5
 63
     7
 74
     1
 91
        4
 64
     7
 65
   257
 75
     1
175
     1
 42
1.0
 92
        8
 66
     7
 43
1.0
 76
     1
 77
     6
 78
     2
 67
     7
 79
     5
170
     0
171
     0
290
     0
174
     0
 93
        1
 44
50.0
173
     0
291
     1
 45
0.0
1001
ACAD
1000
AcDbSavedByObjectVersion
1070
     0
  0
VISUALSTYLE
  5
3A
102
{ACAD_REACTORS
330
2A
102
}
102
{ACAD_XDICTIONARY
360
339
102
}
330
2A
100
AcDbVisualStyle
  2
ColorChange
 70
    16
 71
     2
 72
     2
 73
     3
 90
        0
 40
-0.6
 41
-30.0
 62
     5
 63
     8
 74
     1
 91
        4
 64
     7
 65
   257
 75
     1
175
     1
 42
1.0
 92
        8
 66
     8
 43
1.0
 76
     1
 77
     6
 78
     2
 67
     7
 79
     5
170
     0
171
     0
290
     0
174
     0
 93
        1
 44
0.0
173
     0
291
     1
 45
0.0
1001
ACAD
1000
AcDbSavedByObjectVersion
1070
     0
  0
VISUALSTYLE
  5
34
102
{ACAD_REACTORS
330
2A
102
}
102
{ACAD_XDICTIONARY
360
32D
102
}
330
2A
100
AcDbVisualStyle
  2
Conceptual
 70
     9
 71
     3
 72
     2
 73
     0
 90
        0
 40
-0.6
 41
-30.0
 62
     5
 63
     7
 74
     2
 91
        2
 64
     7
 65
   257
 75
     1
175
     1
 42
40.0
 92
        8
 66
     7
 43
1.0
 76
     1
 77
     6
 78
     2
 67
     7
 79
     3
170
     0
171
     0
290
     0
174
     0
 93
        1
 44
0.0
173
     0
291
     0
 45
0.0
1001
ACAD
1000
AcDbSavedByObjectVersion
1070
     0
  0
VISUALSTYLE
  5
35
102
{ACAD_REACTORS
330
2A
102
}
102
{ACAD_XDICTIONARY
360
32F
102
}
330
2A
100
AcDbVisualStyle
  2
Dim
 70
    11
 71
     2
 72
     2
 73
     0
 90
        0
 40
-0.6
 41
-30.0
 62
     5
 63
     7
 74
     1
 91
        4
 64
     7
 65
   257
 75
     1
175
     1
 42
1.0
 92
        8
 66
     7
 43
1.0
 76
     1
 77
     6
 78
     2
 67
     7
 79
     5
170
     0
171
     0
290
     0
174
     0
 93
        1
 44
-50.0
173
     0
291
     1
 45
0.0
1001
ACAD
1000
AcDbSavedByObjectVersion
1070
     0
  0
VISUALSTYLE
  5
39
102
{ACAD_REACTORS
330
2A
102
}
102
{ACAD_XDICTIONARY
360
337
102
}
330
2A
100
AcDbVisualStyle
  2
Facepattern
 70
    15
 71
     2
 72
     2
 73
     0
 90
        0
 40
-0.6
 41
-30.0
 62
     5
 63
     7
 74
     1
 91
        4
 64
     7
 65
   257
 75
     1
175
     1
 42
1.0
 92
        8
 66
     7
 43
1.0
 76
     1
 77
     6
 78
     2
 67
     7
 79
     5
170
     0
171
     0
290
     0
174
     0
 93
        1
 44
0.0
173
     0
291
     1
 45
0.0
1001
ACAD
1000
AcDbSavedByObjectVersion
1070
     0
  0
VISUALSTYLE
  5
2B
102
{ACAD_REACTORS
330
2A
102
}
102
{ACAD_XDICTIONARY
360
31B
102
}
330
2A
100
AcDbVisualStyle
  2
Flat
 70
     0
 71
     2
 72
     1
 73
     1
 90
        2
 40
-0.6
 41
30.0
 62
     5
 63
     7
 74
     0
 91
        4
 64
     7
 65
   257
 75
     1
175
     1
 42
1.0
 92
        8
 66
     7
 43
1.0
 76
     1
 77
     6
 78
     2
 67
     7
 79
     5
170
     0
171
     0
290
     0
174
     0
 93
       13
 44
0.0
173
     0
291
     1
 45
0.0
1001
ACAD
1000
AcDbSavedByObjectVersion
1070
     0
  0
VISUALSTYLE
  5
2C
102
{ACAD_REACTORS
330
2A
102
}
102
{ACAD_XDICTIONARY
360
31D
102
}
330
2A
100
AcDbVisualStyle
  2
FlatWithEdges
 70
     1
 71
     2
 72
     1
 73
     1
 90
        2
 40
-0.6
 41
30.0
 62
     5
 63
     7
 74
     1
 91
        4
 64
     7
 65
   257
 75
     1
175
     1
 42
1.0
 92
        0
 66
   257
 43
1.0
 76
     1
 77
     6
 78
     2
 67
     7
 79
     5
170
     0
171
     0
290
     0
174
     0
 93
       13
 44
0.0
173
     0
291
     1
 45
0.0
1001
ACAD
1000
AcDbSavedByObjectVersion
1070
     0
  0
VISUALSTYLE
  5
2D
102
{ACAD_REACTORS
330
2A
102
}
102
{ACAD_XDICTIONARY
360
31F
102
}
330
2A
100
AcDbVisualStyle
  2
Gouraud
 70
     2
 71
     2
 72
     2
 73
     1
 90
        2
 40
-0.6
 41
30.0
 62
     5
 63
     7
 74
     0
 91
        4
 64
     7
 65
   257
 75
     1
175
     1
 42
1.0
 92
        0
 66
     7
 43
1.0
 76
     1
 77
     6
 78
     2
 67
     7
 79
     5
170
     0
171
     0
290
     0
174
     0
 93
       13
 44
0.0
173
     0
291
     1
 45
0.0
1001
ACAD
1000
AcDbSavedByObjectVersion
1070
     0
  0
VISUALSTYLE
  5
2E
102
{ACAD_REACTORS
330
2A
102
}
102
{ACAD_XDICTIONARY
360
321
102
}
330
2A
100
AcDbVisualStyle
  2
GouraudWithEdges
 70
     3
 71
     2
 72
     2
 73
     1
 90
        2
 40
-0.6
 41
30.0
 62
     5
 63
     7
 74
     1
 91
        4
 64
     7
 65
   257
 75
     1
175
     1
 42
1.0
 92
        0
 66
   257
 43
1.0
 76
     1
 77
     6
 78
     2
 67
     7
 79
     5
170
     0
171
     0
290
     0
174
     0
 93
       13
 44
0.0
173
     0
291
     1
 45
0.0
1001
ACAD
1000
AcDbSavedByObjectVersion
1070
     0
  0
VISUALSTYLE
  5
38
102
{ACAD_REACTORS
330
2A
102
}
102
{ACAD_XDICTIONARY
360
335
102
}
330
2A
100
AcDbVisualStyle
  2
Linepattern
 70
    14
 71
     2
 72
     2
 73
     0
 90
        0
 40
-0.6
 41
-30.0
 62
     5
 63
     7
 74
     1
 91
        4
 64
     7
 65
   257
 75
     7
175
     7
 42
1.0
 92
        8
 66
     7
 43
1.0
 76
     1
 77
     6
 78
     2
 67
     7
 79
     5
170
     0
171
     0
290
     0
174
     0
 93
        1
 44
0.0
173
     0
291
     1
 45
0.0
1001
ACAD
1000
AcDbSavedByObjectVersion
1070
     0
  0
VISUALSTYLE
  5
33
102
{ACAD_REACTORS
330
2A
102
}
102
{ACAD_XDICTIONARY
360
32B
102
}
330
2A
100
AcDbVisualStyle
  2
Realistic
 70
     8
 71
     2
 72
     2
 73
     0
 90
        0
 40
-0.6
 41
-30.0
 62
     5
 63
     7
 74
     1
 91
        0
 64
     7
 65
   257
 75
     1
175
     1
 42
1.0
 92
        8
 66
     8
 43
1.0
 76
     1
 77
     6
 78
     2
 67
     7
 79
     5
170
     0
171
     0
290
     0
174
     0
 93
       13
 44
0.0
173
     0
291
     0
 45
0.0
1001
ACAD
1000
AcDbSavedByObjectVersion
1070
     0
  0
VISUALSTYLE
  5
37
102
{ACAD_REACTORS
330
2A
102
}
102
{ACAD_XDICTIONARY
360
333
102
}
330
2A
100
AcDbVisualStyle
  2
Thicken
 70
    13
 71
     2
 72
     2
 73
     0
 90
        0
 40
-0.6
 41
-30.0
 62
     5
 63
     7
 74
     1
 91
        4
 64
     7
 65
   257
 75
     1
175
     1
 42
1.0
 92
       12
 66
     7
 43
1.0
 76
     1
 77
     6
 78
     2
 67
     7
 79
     5
170
     0
171
     0
290
     0
174
     0
 93
        1
 44
0.0
173
     0
291
     1
 45
0.0
1001
ACAD
1000
AcDbSavedByObjectVersion
1070
     0
  0
DICTIONARYVAR
  5
319
102
{ACAD_REACTORS
330
316
102
}
330
316
100
DictionaryVariables
280
     0
  1
2
  0
DICTIONARYVAR
  5
31A
102
{ACAD_REACTORS
330
316
102
}
330
316
100
DictionaryVariables
280
     0
  1
1
  0
DICTIONARY
  5
33D
330
3D
100
AcDbDictionary
280
     1
281
     1
  3
ACAD_XREC_ROUNDTRIP
360
33E
  0
DICTIONARY
  5
33B
330
3C
100
AcDbDictionary
280
     1
281
     1
  3
ACAD_XREC_ROUNDTRIP
360
33C
  0
DICTIONARY
  5
33F
330
3E
100
AcDbDictionary
280
     1
281
     1
  3
ACAD_XREC_ROUNDTRIP
360
340
  0
DICTIONARY
  5
323
330
2F
100
AcDbDictionary
280
     1
281
     1
  3
ACAD_XREC_ROUNDTRIP
360
324
  0
DICTIONARY
  5
327
330
31
100
AcDbDictionary
280
     1
281
     1
  3
ACAD_XREC_ROUNDTRIP
360
328
  0
DICTIONARY
  5
325
330
30
100
AcDbDictionary
280
     1
281
     1
  3
ACAD_XREC_ROUNDTRIP
360
326
  0
DICTIONARY
  5
329
330
32
100
AcDbDictionary
280
     1
281
     1
  3
ACAD_XREC_ROUNDTRIP
360
32A
  0
DICTIONARY
  5
331
330
36
100
AcDbDictionary
280
     1
281
     1
  3
ACAD_XREC_ROUNDTRIP
360
332
  0
DICTIONARY
  5
339
330
3A
100
AcDbDictionary
280
     1
281
     1
  3
ACAD_XREC_ROUNDTRIP
360
33A
  0
DICTIONARY
  5
32D
330
34
100
AcDbDictionary
280
     1
281
     1
  3
ACAD_XREC_ROUNDTRIP
360
32E
  0
DICTIONARY
  5
32F
330
35
100
AcDbDictionary
280
     1
281
     1
  3
ACAD_XREC_ROUNDTRIP
360
330
  0
DICTIONARY
  5
337
330
39
100
AcDbDictionary
280
     1
281
     1
  3
ACAD_XREC_ROUNDTRIP
360
338
  0
DICTIONARY
  5
31B
330
2B
100
AcDbDictionary
280
     1
281
     1
  3
ACAD_XREC_ROUNDTRIP
360
31C
  0
DICTIONARY
  5
31D
330
2C
100
AcDbDictionary
280
     1
281
     1
  3
ACAD_XREC_ROUNDTRIP
360
31E
  0
DICTIONARY
  5
31F
330
2D
100
AcDbDictionary
280
     1
281
     1
  3
ACAD_XREC_ROUNDTRIP
360
320
  0
DICTIONARY
  5
321
330
2E
100
AcDbDictionary
280
     1
281
     1
  3
ACAD_XREC_ROUNDTRIP
360
322
  0
DICTIONARY
  5
335
330
38
100
AcDbDictionary
280
     1
281
     1
  3
ACAD_XREC_ROUNDTRIP
360
336
  0
DICTIONARY
  5
32B
330
33
100
AcDbDictionary
280
     1
281
     1
  3
ACAD_XREC_ROUNDTRIP
360
32C
  0
DICTIONARY
  5
333
330
37
100
AcDbDictionary
280
     1
281
     1
  3
ACAD_XREC_ROUNDTRIP
360
334
  0
XRECORD
  5
33E
102
{ACAD_REACTORS
330
33D
102
}
330
33D
100
AcDbXrecord
280
     1
102
MATERIAL
148
0.0
149
0.0
149
0.0
 93
        0
 94
      127
282
     0
 72
     1
 77
     1
171
     1
175
     1
179
     1
273
     0
  0
XRECORD
  5
33C
102
{ACAD_REACTORS
330
33B
102
}
330
33B
100
AcDbXrecord
280
     1
102
MATERIAL
148
0.0
149
0.0
149
0.0
 93
        0
 94
      127
282
     0
 72
     1
 77
     1
171
     1
175
     1
179
     1
273
     0
  0
XRECORD
  5
340
102
{ACAD_REACTORS
330
33F
102
}
330
33F
100
AcDbXrecord
280
     1
102
MATERIAL
148
0.0
149
0.0
149
0.0
 93
        0
 94
      127
282
     0
 72
     1
 77
     1
171
     1
175
     1
179
     1
273
     0
  0
XRECORD
  5
324
102
{ACAD_REACTORS
330
323
102
}
330
323
100
AcDbXrecord
280
     1
102
RTVSPropertyOp0
 70
     1
102
RTVSPropertyOp1
 70
     1
102
RTVSPropertyOp2
 70
     1
102
RTVSPropertyOp3
 70
     1
102
RTVSPropertyOp4
 70
     1
102
RTVSPropertyOp5
 70
     1
102
RTVSPropertyOp6
 70
     1
102
RTVSPropertyOp7
 70
     1
102
RTVSPropertyOp8
 70
     1
102
RTVSPropertyOp9
 70
     1
102
RTVSPropertyOp10
 70
     1
102
RTVSPropertyOp11
 70
     1
102
RTVSPropertyOp12
 70
     1
102
RTVSPropertyOp13
 70
     1
102
RTVSPropertyOp14
 70
     1
102
RTVSPropertyOp15
 70
     1
102
RTVSPropertyOp16
 70
     1
102
RTVSPropertyOp17
 70
     1
102
RTVSPropertyOp18
 70
     1
102
RTVSPropertyOp19
 70
     1
102
RTVSPropertyOp20
 70
     1
102
RTVSPropertyOp21
 70
     1
102
RTVSPropertyOp22
 70
     1
102
RTVSPropertyOp23
 70
     1
102
RTVSPropertyOp24
 70
     1
102
RTVSPropertyOp25
 70
     1
102
RTVSPropertyOp26
 70
     1
102
RTVSPropertyOp27
 70
     1
102
RTVSPropertyOp28
 70
     1
102
RTVSPropertyOp29
 70
     1
102
RTVSPropertyOp30
 70
     1
102
RTVSPropertyOp31
 70
     1
102
RTVSPropertyOp32
 70
     1
  0
XRECORD
  5
328
102
{ACAD_REACTORS
330
327
102
}
330
327
100
AcDbXrecord
280
     1
102
RTVSPropertyOp0
 70
     1
102
RTVSPropertyOp1
 70
     1
102
RTVSPropertyOp2
 70
     1
102
RTVSPropertyOp3
 70
     1
102
RTVSPropertyOp4
 70
     1
102
RTVSPropertyOp5
 70
     1
102
RTVSPropertyOp6
 70
     1
102
RTVSPropertyOp7
 70
     1
102
RTVSPropertyOp8
 70
     1
102
RTVSPropertyOp9
 70
     1
102
RTVSPropertyOp10
 70
     1
102
RTVSPropertyOp11
 70
     1
102
RTVSPropertyOp12
 70
     1
102
RTVSPropertyOp13
 70
     1
102
RTVSPropertyOp14
 70
     1
102
RTVSPropertyOp15
 70
     1
102
RTVSPropertyOp16
 70
     1
102
RTVSPropertyOp17
 70
     1
102
RTVSPropertyOp18
 70
     1
102
RTVSPropertyOp19
 70
     1
102
RTVSPropertyOp20
 70
     1
102
RTVSPropertyOp21
 70
     1
102
RTVSPropertyOp22
 70
     1
102
RTVSPropertyOp23
 70
     1
102
RTVSPropertyOp24
 70
     1
102
RTVSPropertyOp25
 70
     1
102
RTVSPropertyOp26
 70
     1
102
RTVSPropertyOp27
 70
     1
102
RTVSPropertyOp28
 70
     1
102
RTVSPropertyOp29
 70
     1
102
RTVSPropertyOp30
 70
     1
102
RTVSPropertyOp31
 70
     1
102
RTVSPropertyOp32
 70
     1
  0
XRECORD
  5
326
102
{ACAD_REACTORS
330
325
102
}
330
325
100
AcDbXrecord
280
     1
102
RTVSPropertyOp0
 70
     1
102
RTVSPropertyOp1
 70
     1
102
RTVSPropertyOp2
 70
     1
102
RTVSPropertyOp3
 70
     1
102
RTVSPropertyOp4
 70
     1
102
RTVSPropertyOp5
 70
     1
102
RTVSPropertyOp6
 70
     1
102
RTVSPropertyOp7
 70
     1
102
RTVSPropertyOp8
 70
     1
102
RTVSPropertyOp9
 70
     1
102
RTVSPropertyOp10
 70
     1
102
RTVSPropertyOp11
 70
     1
102
RTVSPropertyOp12
 70
     1
102
RTVSPropertyOp13
 70
     1
102
RTVSPropertyOp14
 70
     1
102
RTVSPropertyOp15
 70
     1
102
RTVSPropertyOp16
 70
     1
102
RTVSPropertyOp17
 70
     1
102
RTVSPropertyOp18
 70
     1
102
RTVSPropertyOp19
 70
     1
102
RTVSPropertyOp20
 70
     1
102
RTVSPropertyOp21
 70
     1
102
RTVSPropertyOp22
 70
     1
102
RTVSPropertyOp23
 70
     1
102
RTVSPropertyOp24
 70
     1
102
RTVSPropertyOp25
 70
     1
102
RTVSPropertyOp26
 70
     1
102
RTVSPropertyOp27
 70
     1
102
RTVSPropertyOp28
 70
     1
102
RTVSPropertyOp29
 70
     1
102
RTVSPropertyOp30
 70
     1
102
RTVSPropertyOp31
 70
     1
102
RTVSPropertyOp32
 70
     1
  0
XRECORD
  5
32A
102
{ACAD_REACTORS
330
329
102
}
330
329
100
AcDbXrecord
280
     1
102
RTVSPropertyOp0
 70
     1
102
RTVSPropertyOp1
 70
     1
102
RTVSPropertyOp2
 70
     1
102
RTVSPropertyOp3
 70
     1
102
RTVSPropertyOp4
 70
     1
102
RTVSPropertyOp5
 70
     1
102
RTVSPropertyOp6
 70
     1
102
RTVSPropertyOp7
 70
     1
102
RTVSPropertyOp8
 70
     1
102
RTVSPropertyOp9
 70
     1
102
RTVSPropertyOp10
 70
     1
102
RTVSPropertyOp11
 70
     1
102
RTVSPropertyOp12
 70
     1
102
RTVSPropertyOp13
 70
     1
102
RTVSPropertyOp14
 70
     1
102
RTVSPropertyOp15
 70
     1
102
RTVSPropertyOp16
 70
     1
102
RTVSPropertyOp17
 70
     1
102
RTVSPropertyOp18
 70
     1
102
RTVSPropertyOp19
 70
     1
102
RTVSPropertyOp20
 70
     1
102
RTVSPropertyOp21
 70
     1
102
RTVSPropertyOp22
 70
     1
102
RTVSPropertyOp23
 70
     1
102
RTVSPropertyOp24
 70
     1
102
RTVSPropertyOp25
 70
     1
102
RTVSPropertyOp26
 70
     1
102
RTVSPropertyOp27
 70
     1
102
RTVSPropertyOp28
 70
     1
102
RTVSPropertyOp29
 70
     1
102
RTVSPropertyOp30
 70
     1
102
RTVSPropertyOp31
 70
     1
102
RTVSPropertyOp32
 70
     1
  0
XRECORD
  5
332
102
{ACAD_REACTORS
330
331
102
}
330
331
100
AcDbXrecord
280
     1
102
RTVSPropertyOp0
 70
     1
102
RTVSPropertyOp1
 70
     1
102
RTVSPropertyOp2
 70
     1
102
RTVSPropertyOp3
 70
     1
102
RTVSPropertyOp4
 70
     1
102
RTVSPropertyOp5
 70
     1
102
RTVSPropertyOp6
 70
     1
102
RTVSPropertyOp7
 70
     1
102
RTVSPropertyOp8
 70
     1
102
RTVSPropertyOp9
 70
     1
102
RTVSPropertyOp10
 70
     1
102
RTVSPropertyOp11
 70
     1
102
RTVSPropertyOp12
 70
     1
102
RTVSPropertyOp13
 70
     1
102
RTVSPropertyOp14
 70
     1
102
RTVSPropertyOp15
 70
     1
102
RTVSPropertyOp16
 70
     1
102
RTVSPropertyOp17
 70
     1
102
RTVSPropertyOp18
 70
     1
102
RTVSPropertyOp19
 70
     1
102
RTVSPropertyOp20
 70
     1
102
RTVSPropertyOp21
 70
     1
102
RTVSPropertyOp22
 70
     1
102
RTVSPropertyOp23
 70
     1
102
RTVSPropertyOp24
 70
     1
102
RTVSPropertyOp25
 70
     1
102
RTVSPropertyOp26
 70
     1
102
RTVSPropertyOp27
 70
     1
102
RTVSPropertyOp28
 70
     1
102
RTVSPropertyOp29
 70
     1
102
RTVSPropertyOp30
 70
     1
102
RTVSPropertyOp31
 70
     1
102
RTVSPropertyOp32
 70
     1
  0
XRECORD
  5
33A
102
{ACAD_REACTORS
330
339
102
}
330
339
100
AcDbXrecord
280
     1
102
RTVSPropertyOp0
 70
     1
102
RTVSPropertyOp1
 70
     1
102
RTVSPropertyOp2
 70
     1
102
RTVSPropertyOp3
 70
     1
102
RTVSPropertyOp4
 70
     1
102
RTVSPropertyOp5
 70
     1
102
RTVSPropertyOp6
 70
     1
102
RTVSPropertyOp7
 70
     1
102
RTVSPropertyOp8
 70
     1
102
RTVSPropertyOp9
 70
     1
102
RTVSPropertyOp10
 70
     1
102
RTVSPropertyOp11
 70
     1
102
RTVSPropertyOp12
 70
     1
102
RTVSPropertyOp13
 70
     1
102
RTVSPropertyOp14
 70
     1
102
RTVSPropertyOp15
 70
     1
102
RTVSPropertyOp16
 70
     1
102
RTVSPropertyOp17
 70
     1
102
RTVSPropertyOp18
 70
     1
102
RTVSPropertyOp19
 70
     1
102
RTVSPropertyOp20
 70
     1
102
RTVSPropertyOp21
 70
     1
102
RTVSPropertyOp22
 70
     1
102
RTVSPropertyOp23
 70
     1
102
RTVSPropertyOp24
 70
     1
102
RTVSPropertyOp25
 70
     1
102
RTVSPropertyOp26
 70
     1
102
RTVSPropertyOp27
 70
     1
102
RTVSPropertyOp28
 70
     1
102
RTVSPropertyOp29
 70
     1
102
RTVSPropertyOp30
 70
     1
102
RTVSPropertyOp31
 70
     1
102
RTVSPropertyOp32
 70
     1
  0
XRECORD
  5
32E
102
{ACAD_REACTORS
330
32D
102
}
330
32D
100
AcDbXrecord
280
     1
102
RTVSPropertyOp0
 70
     1
102
RTVSPropertyOp1
 70
     1
102
RTVSPropertyOp2
 70
     1
102
RTVSPropertyOp3
 70
     1
102
RTVSPropertyOp4
 70
     1
102
RTVSPropertyOp5
 70
     1
102
RTVSPropertyOp6
 70
     1
102
RTVSPropertyOp7
 70
     1
102
RTVSPropertyOp8
 70
     1
102
RTVSPropertyOp9
 70
     1
102
RTVSPropertyOp10
 70
     1
102
RTVSPropertyOp11
 70
     1
102
RTVSPropertyOp12
 70
     1
102
RTVSPropertyOp13
 70
     1
102
RTVSPropertyOp14
 70
     1
102
RTVSPropertyOp15
 70
     1
102
RTVSPropertyOp16
 70
     1
102
RTVSPropertyOp17
 70
     1
102
RTVSPropertyOp18
 70
     1
102
RTVSPropertyOp19
 70
     1
102
RTVSPropertyOp20
 70
     1
102
RTVSPropertyOp21
 70
     1
102
RTVSPropertyOp22
 70
     1
102
RTVSPropertyOp23
 70
     1
102
RTVSPropertyOp24
 70
     1
102
RTVSPropertyOp25
 70
     1
102
RTVSPropertyOp26
 70
     1
102
RTVSPropertyOp27
 70
     1
102
RTVSPropertyOp28
 70
     1
102
RTVSPropertyOp29
 70
     1
102
RTVSPropertyOp30
 70
     1
102
RTVSPropertyOp31
 70
     1
102
RTVSPropertyOp32
 70
     1
  0
XRECORD
  5
330
102
{ACAD_REACTORS
330
32F
102
}
330
32F
100
AcDbXrecord
280
     1
102
RTVSPropertyOp0
 70
     1
102
RTVSPropertyOp1
 70
     1
102
RTVSPropertyOp2
 70
     1
102
RTVSPropertyOp3
 70
     1
102
RTVSPropertyOp4
 70
     1
102
RTVSPropertyOp5
 70
     1
102
RTVSPropertyOp6
 70
     1
102
RTVSPropertyOp7
 70
     1
102
RTVSPropertyOp8
 70
     1
102
RTVSPropertyOp9
 70
     1
102
RTVSPropertyOp10
 70
     1
102
RTVSPropertyOp11
 70
     1
102
RTVSPropertyOp12
 70
     1
102
RTVSPropertyOp13
 70
     1
102
RTVSPropertyOp14
 70
     1
102
RTVSPropertyOp15
 70
     1
102
RTVSPropertyOp16
 70
     1
102
RTVSPropertyOp17
 70
     1
102
RTVSPropertyOp18
 70
     1
102
RTVSPropertyOp19
 70
     1
102
RTVSPropertyOp20
 70
     1
102
RTVSPropertyOp21
 70
     1
102
RTVSPropertyOp22
 70
     1
102
RTVSPropertyOp23
 70
     1
102
RTVSPropertyOp24
 70
     1
102
RTVSPropertyOp25
 70
     1
102
RTVSPropertyOp26
 70
     1
102
RTVSPropertyOp27
 70
     1
102
RTVSPropertyOp28
 70
     1
102
RTVSPropertyOp29
 70
     1
102
RTVSPropertyOp30
 70
     1
102
RTVSPropertyOp31
 70
     1
102
RTVSPropertyOp32
 70
     1
  0
XRECORD
  5
338
102
{ACAD_REACTORS
330
337
102
}
330
337
100
AcDbXrecord
280
     1
102
RTVSPropertyOp0
 70
     1
102
RTVSPropertyOp1
 70
     1
102
RTVSPropertyOp2
 70
     1
102
RTVSPropertyOp3
 70
     1
102
RTVSPropertyOp4
 70
     1
102
RTVSPropertyOp5
 70
     1
102
RTVSPropertyOp6
 70
     1
102
RTVSPropertyOp7
 70
     1
102
RTVSPropertyOp8
 70
     1
102
RTVSPropertyOp9
 70
     1
102
RTVSPropertyOp10
 70
     1
102
RTVSPropertyOp11
 70
     1
102
RTVSPropertyOp12
 70
     1
102
RTVSPropertyOp13
 70
     1
102
RTVSPropertyOp14
 70
     1
102
RTVSPropertyOp15
 70
     1
102
RTVSPropertyOp16
 70
     1
102
RTVSPropertyOp17
 70
     1
102
RTVSPropertyOp18
 70
     1
102
RTVSPropertyOp19
 70
     1
102
RTVSPropertyOp20
 70
     1
102
RTVSPropertyOp21
 70
     1
102
RTVSPropertyOp22
 70
     1
102
RTVSPropertyOp23
 70
     1
102
RTVSPropertyOp24
 70
     1
102
RTVSPropertyOp25
 70
     1
102
RTVSPropertyOp26
 70
     1
102
RTVSPropertyOp27
 70
     1
102
RTVSPropertyOp28
 70
     1
102
RTVSPropertyOp29
 70
     1
102
RTVSPropertyOp30
 70
     1
102
RTVSPropertyOp31
 70
     1
102
RTVSPropertyOp32
 70
     1
  0
XRECORD
  5
31C
102
{ACAD_REACTORS
330
31B
102
}
330
31B
100
AcDbXrecord
280
     1
102
RTVSPropertyOp0
 70
     1
102
RTVSPropertyOp1
 70
     1
102
RTVSPropertyOp2
 70
     1
102
RTVSPropertyOp3
 70
     1
102
RTVSPropertyOp4
 70
     1
102
RTVSPropertyOp5
 70
     1
102
RTVSPropertyOp6
 70
     1
102
RTVSPropertyOp7
 70
     1
102
RTVSPropertyOp8
 70
     1
102
RTVSPropertyOp9
 70
     1
102
RTVSPropertyOp10
 70
     1
102
RTVSPropertyOp11
 70
     1
102
RTVSPropertyOp12
 70
     1
102
RTVSPropertyOp13
 70
     1
102
RTVSPropertyOp14
 70
     1
102
RTVSPropertyOp15
 70
     1
102
RTVSPropertyOp16
 70
     1
102
RTVSPropertyOp17
 70
     1
102
RTVSPropertyOp18
 70
     1
102
RTVSPropertyOp19
 70
     1
102
RTVSPropertyOp20
 70
     1
102
RTVSPropertyOp21
 70
     1
102
RTVSPropertyOp22
 70
     1
102
RTVSPropertyOp23
 70
     1
102
RTVSPropertyOp24
 70
     1
102
RTVSPropertyOp25
 70
     1
102
RTVSPropertyOp26
 70
     1
102
RTVSPropertyOp27
 70
     1
102
RTVSPropertyOp28
 70
     1
102
RTVSPropertyOp29
 70
     1
102
RTVSPropertyOp30
 70
     1
102
RTVSPropertyOp31
 70
     1
102
RTVSPropertyOp32
 70
     1
  0
XRECORD
  5
31E
102
{ACAD_REACTORS
330
31D
102
}
330
31D
100
AcDbXrecord
280
     1
102
RTVSPropertyOp0
 70
     1
102
RTVSPropertyOp1
 70
     1
102
RTVSPropertyOp2
 70
     1
102
RTVSPropertyOp3
 70
     1
102
RTVSPropertyOp4
 70
     1
102
RTVSPropertyOp5
 70
     1
102
RTVSPropertyOp6
 70
     1
102
RTVSPropertyOp7
 70
     1
102
RTVSPropertyOp8
 70
     1
102
RTVSPropertyOp9
 70
     1
102
RTVSPropertyOp10
 70
     1
102
RTVSPropertyOp11
 70
     1
102
RTVSPropertyOp12
 70
     1
102
RTVSPropertyOp13
 70
     1
102
RTVSPropertyOp14
 70
     1
102
RTVSPropertyOp15
 70
     1
102
RTVSPropertyOp16
 70
     1
102
RTVSPropertyOp17
 70
     1
102
RTVSPropertyOp18
 70
     1
102
RTVSPropertyOp19
 70
     1
102
RTVSPropertyOp20
 70
     1
102
RTVSPropertyOp21
 70
     1
102
RTVSPropertyOp22
 70
     1
102
RTVSPropertyOp23
 70
     1
102
RTVSPropertyOp24
 70
     1
102
RTVSPropertyOp25
 70
     1
102
RTVSPropertyOp26
 70
     1
102
RTVSPropertyOp27
 70
     1
102
RTVSPropertyOp28
 70
     1
102
RTVSPropertyOp29
 70
     1
102
RTVSPropertyOp30
 70
     1
102
RTVSPropertyOp31
 70
     1
102
RTVSPropertyOp32
 70
     1
  0
XRECORD
  5
320
102
{ACAD_REACTORS
330
31F
102
}
330
31F
100
AcDbXrecord
280
     1
102
RTVSPropertyOp0
 70
     1
102
RTVSPropertyOp1
 70
     1
102
RTVSPropertyOp2
 70
     1
102
RTVSPropertyOp3
 70
     1
102
RTVSPropertyOp4
 70
     1
102
RTVSPropertyOp5
 70
     1
102
RTVSPropertyOp6
 70
     1
102
RTVSPropertyOp7
 70
     1
102
RTVSPropertyOp8
 70
     1
102
RTVSPropertyOp9
 70
     1
102
RTVSPropertyOp10
 70
     1
102
RTVSPropertyOp11
 70
     1
102
RTVSPropertyOp12
 70
     1
102
RTVSPropertyOp13
 70
     1
102
RTVSPropertyOp14
 70
     1
102
RTVSPropertyOp15
 70
     1
102
RTVSPropertyOp16
 70
     1
102
RTVSPropertyOp17
 70
     1
102
RTVSPropertyOp18
 70
     1
102
RTVSPropertyOp19
 70
     1
102
RTVSPropertyOp20
 70
     1
102
RTVSPropertyOp21
 70
     1
102
RTVSPropertyOp22
 70
     1
102
RTVSPropertyOp23
 70
     1
102
RTVSPropertyOp24
 70
     1
102
RTVSPropertyOp25
 70
     1
102
RTVSPropertyOp26
 70
     1
102
RTVSPropertyOp27
 70
     1
102
RTVSPropertyOp28
 70
     1
102
RTVSPropertyOp29
 70
     1
102
RTVSPropertyOp30
 70
     1
102
RTVSPropertyOp31
 70
     1
102
RTVSPropertyOp32
 70
     1
  0
XRECORD
  5
322
102
{ACAD_REACTORS
330
321
102
}
330
321
100
AcDbXrecord
280
     1
102
RTVSPropertyOp0
 70
     1
102
RTVSPropertyOp1
 70
     1
102
RTVSPropertyOp2
 70
     1
102
RTVSPropertyOp3
 70
     1
102
RTVSPropertyOp4
 70
     1
102
RTVSPropertyOp5
 70
     1
102
RTVSPropertyOp6
 70
     1
102
RTVSPropertyOp7
 70
     1
102
RTVSPropertyOp8
 70
     1
102
RTVSPropertyOp9
 70
     1
102
RTVSPropertyOp10
 70
     1
102
RTVSPropertyOp11
 70
     1
102
RTVSPropertyOp12
 70
     1
102
RTVSPropertyOp13
 70
     1
102
RTVSPropertyOp14
 70
     1
102
RTVSPropertyOp15
 70
     1
102
RTVSPropertyOp16
 70
     1
102
RTVSPropertyOp17
 70
     1
102
RTVSPropertyOp18
 70
     1
102
RTVSPropertyOp19
 70
     1
102
RTVSPropertyOp20
 70
     1
102
RTVSPropertyOp21
 70
     1
102
RTVSPropertyOp22
 70
     1
102
RTVSPropertyOp23
 70
     1
102
RTVSPropertyOp24
 70
     1
102
RTVSPropertyOp25
 70
     1
102
RTVSPropertyOp26
 70
     1
102
RTVSPropertyOp27
 70
     1
102
RTVSPropertyOp28
 70
     1
102
RTVSPropertyOp29
 70
     1
102
RTVSPropertyOp30
 70
     1
102
RTVSPropertyOp31
 70
     1
102
RTVSPropertyOp32
 70
     1
  0
XRECORD
  5
336
102
{ACAD_REACTORS
330
335
102
}
330
335
100
AcDbXrecord
280
     1
102
RTVSPropertyOp0
 70
     1
102
RTVSPropertyOp1
 70
     1
102
RTVSPropertyOp2
 70
     1
102
RTVSPropertyOp3
 70
     1
102
RTVSPropertyOp4
 70
     1
102
RTVSPropertyOp5
 70
     1
102
RTVSPropertyOp6
 70
     1
102
RTVSPropertyOp7
 70
     1
102
RTVSPropertyOp8
 70
     1
102
RTVSPropertyOp9
 70
     1
102
RTVSPropertyOp10
 70
     1
102
RTVSPropertyOp11
 70
     1
102
RTVSPropertyOp12
 70
     1
102
RTVSPropertyOp13
 70
     1
102
RTVSPropertyOp14
 70
     1
102
RTVSPropertyOp15
 70
     1
102
RTVSPropertyOp16
 70
     1
102
RTVSPropertyOp17
 70
     1
102
RTVSPropertyOp18
 70
     1
102
RTVSPropertyOp19
 70
     1
102
RTVSPropertyOp20
 70
     1
102
RTVSPropertyOp21
 70
     1
102
RTVSPropertyOp22
 70
     1
102
RTVSPropertyOp23
 70
     1
102
RTVSPropertyOp24
 70
     1
102
RTVSPropertyOp25
 70
     1
102
RTVSPropertyOp26
 70
     1
102
RTVSPropertyOp27
 70
     1
102
RTVSPropertyOp28
 70
     1
102
RTVSPropertyOp29
 70
     1
102
RTVSPropertyOp30
 70
     1
102
RTVSPropertyOp31
 70
     1
102
RTVSPropertyOp32
 70
     1
  0
XRECORD
  5
32C
102
{ACAD_REACTORS
330
32B
102
}
330
32B
100
AcDbXrecord
280
     1
102
RTVSPropertyOp0
 70
     1
102
RTVSPropertyOp1
 70
     1
102
RTVSPropertyOp2
 70
     1
102
RTVSPropertyOp3
 70
     1
102
RTVSPropertyOp4
 70
     1
102
RTVSPropertyOp5
 70
     1
102
RTVSPropertyOp6
 70
     1
102
RTVSPropertyOp7
 70
     1
102
RTVSPropertyOp8
 70
     1
102
RTVSPropertyOp9
 70
     1
102
RTVSPropertyOp10
 70
     1
102
RTVSPropertyOp11
 70
     1
102
RTVSPropertyOp12
 70
     1
102
RTVSPropertyOp13
 70
     1
102
RTVSPropertyOp14
 70
     1
102
RTVSPropertyOp15
 70
     1
102
RTVSPropertyOp16
 70
     1
102
RTVSPropertyOp17
 70
     1
102
RTVSPropertyOp18
 70
     1
102
RTVSPropertyOp19
 70
     1
102
RTVSPropertyOp20
 70
     1
102
RTVSPropertyOp21
 70
     1
102
RTVSPropertyOp22
 70
     1
102
RTVSPropertyOp23
 70
     1
102
RTVSPropertyOp24
 70
     1
102
RTVSPropertyOp25
 70
     1
102
RTVSPropertyOp26
 70
     1
102
RTVSPropertyOp27
 70
     1
102
RTVSPropertyOp28
 70
     1
102
RTVSPropertyOp29
 70
     1
102
RTVSPropertyOp30
 70
     1
102
RTVSPropertyOp31
 70
     1
102
RTVSPropertyOp32
 70
     1
  0
XRECORD
  5
334
102
{ACAD_REACTORS
330
333
102
}
330
333
100
AcDbXrecord
280
     1
102
RTVSPropertyOp0
 70
     1
102
RTVSPropertyOp1
 70
     1
102
RTVSPropertyOp2
 70
     1
102
RTVSPropertyOp3
 70
     1
102
RTVSPropertyOp4
 70
     1
102
RTVSPropertyOp5
 70
     1
102
RTVSPropertyOp6
 70
     1
102
RTVSPropertyOp7
 70
     1
102
RTVSPropertyOp8
 70
     1
102
RTVSPropertyOp9
 70
     1
102
RTVSPropertyOp10
 70
     1
102
RTVSPropertyOp11
 70
     1
102
RTVSPropertyOp12
 70
     1
102
RTVSPropertyOp13
 70
     1
102
RTVSPropertyOp14
 70
     1
102
RTVSPropertyOp15
 70
     1
102
RTVSPropertyOp16
 70
     1
102
RTVSPropertyOp17
 70
     1
102
RTVSPropertyOp18
 70
     1
102
RTVSPropertyOp19
 70
     1
102
RTVSPropertyOp20
 70
     1
102
RTVSPropertyOp21
 70
     1
102
RTVSPropertyOp22
 70
     1
102
RTVSPropertyOp23
 70
     1
102
RTVSPropertyOp24
 70
     1
102
RTVSPropertyOp25
 70
     1
102
RTVSPropertyOp26
 70
     1
102
RTVSPropertyOp27
 70
     1
102
RTVSPropertyOp28
 70
     1
102
RTVSPropertyOp29
 70
     1
102
RTVSPropertyOp30
 70
     1
102
RTVSPropertyOp31
 70
     1
102
RTVSPropertyOp32
 70
     1
  0
ENDSEC
  0
EOF
